<?xml version="1.0" standalone="no"?>
<!DOCTYPE svg PUBLIC "-//W3C//DTD SVG 1.1//EN" "http://www.w3.org/Graphics/SVG/1.1/DTD/svg11.dtd" >
<svg xmlns="http://www.w3.org/2000/svg" xmlns:xlink="http://www.w3.org/1999/xlink" version="1.1">
<metadata></metadata>
<defs>
<font id="pf_dindisplay_prothin" horiz-adv-x="968" >
<font-face units-per-em="2048" ascent="1536" descent="-512" />
<missing-glyph horiz-adv-x="419" />
<glyph unicode="&#xfb01;" horiz-adv-x="868" d="M63 922v86h123v223q0 117 66 179.5t168 62.5h137v-87h-119q-91 0 -125 -47t-34 -131v-200h448v-1008h-92v922h-356v-922h-93v922h-123zM616 1356q0 28 19 47.5t45 19.5q28 0 48 -19.5t20 -47.5t-20 -47t-48 -19q-26 0 -45 19t-19 47z" />
<glyph unicode="&#xfb02;" horiz-adv-x="958" d="M61 922v84h125v219q0 73 22.5 126t62.5 82t87.5 42.5t104.5 13.5q118 0 260 -41v-1217q0 -93 34.5 -124.5t123.5 -26.5l4 -84q-25 -4 -66 -4q-101 0 -143.5 54.5t-42.5 170.5v1157q-69 29 -168 29q-98 0 -143.5 -43t-45.5 -139v-215h244v-84h-244v-922h-90v922h-125z" />
<glyph unicode="&#xfb03;" horiz-adv-x="1314" d="M63 922v86h123v182q0 117 66 179.5t168 62.5h125v-86h-107q-91 0 -125 -47.5t-34 -131.5v-159h354v223q0 117 65.5 179.5t167.5 62.5h135v-87h-116q-91 0 -125.5 -47t-34.5 -131v-200h449v-1008h-93v922h-356v-922h-92v922h-354v-922h-93v922h-123zM1061 1356 q0 28 19.5 47.5t45.5 19.5q28 0 48 -19.5t20 -47.5t-20 -47t-48 -19q-26 0 -45.5 19t-19.5 47z" />
<glyph unicode="&#xfb04;" horiz-adv-x="1404" d="M61 922v84h125v186q0 116 65.5 178t166.5 62h137v-84h-117q-92 0 -127 -47.5t-35 -131.5v-163h355v219q0 73 22.5 126t62.5 82t87 42.5t104 13.5q120 0 262 -41v-1217q0 -93 34.5 -124.5t123.5 -26.5l4 -84q-25 -4 -65 -4q-102 0 -144.5 54.5t-42.5 170.5v1157 q-69 29 -168 29q-98 0 -143 -43t-45 -139v-215h244v-84h-244v-922h-92v922h-355v-922h-90v922h-125z" />
<glyph horiz-adv-x="0" />
<glyph horiz-adv-x="682" />
<glyph unicode=" "  horiz-adv-x="419" />
<glyph unicode="&#x09;" horiz-adv-x="419" />
<glyph unicode="&#xa0;" horiz-adv-x="419" />
<glyph unicode="!" horiz-adv-x="432" d="M139 72q0 29 21 51t55 22q33 0 56.5 -22.5t23.5 -50.5q0 -34 -21.5 -55t-56.5 -21q-36 0 -57 21t-21 55zM164 1425h100q-1 -150 -12 -1114h-76q-1 129 -12 1114z" />
<glyph unicode="&#x22;" horiz-adv-x="503" d="M117 1063v362h76v-362h-76zM311 1063v362h76v-362h-76z" />
<glyph unicode="#" horiz-adv-x="1005" d="M33 457v71h207l51 375h-199v72h211l62 448h73l-59 -448h297l63 448h76l-61 -448h204v-72h-215l-53 -375h211v-71h-219l-61 -457h-80l63 457h-295l-63 -457h-80l63 457h-196zM319 528h295l52 375h-297z" />
<glyph unicode="$" d="M47 127l49 76q189 -125 393 -125q154 0 250.5 76t96.5 213q0 62 -21 110.5t-51.5 78t-81.5 53t-93 35t-104 24.5q-69 14 -120.5 29.5t-110 45t-95.5 67t-62 96.5t-25 134q0 155 100.5 256t265.5 113v174h74v-172q200 -7 350 -90l-41 -82q-157 86 -344 86q-61 0 -115 -17 t-98.5 -51t-70 -91t-25.5 -130q0 -56 21.5 -100t52 -72t81.5 -50.5t91 -34t100 -25.5q79 -17 135 -34.5t113 -48t91.5 -69.5t56.5 -99t22 -136q0 -168 -115 -268.5t-305 -106.5v-189h-74v191q-217 9 -391 133z" />
<glyph unicode="%" horiz-adv-x="1556" d="M90 788v408q0 96 78.5 160.5t193.5 64.5q118 0 195.5 -64t77.5 -161v-408q0 -98 -77 -161.5t-196 -63.5t-195.5 64t-76.5 161zM172 801q0 -43 18 -76t47.5 -51.5t61 -27.5t63.5 -9q72 0 132.5 41t60.5 123v381q0 44 -18.5 77t-48.5 51.5t-62 27t-64 8.5t-63.5 -8.5 t-61 -27t-47.5 -51.5t-18 -77v-381zM301 -35l868 1497h82l-870 -1497h-80zM920 219v408q0 95 79 160t193 65q118 0 195 -64.5t77 -160.5v-410q0 -98 -76.5 -161.5t-195.5 -63.5t-195.5 64.5t-76.5 162.5zM1001 229q0 -82 59.5 -122.5t131.5 -40.5t132 40.5t60 122.5v381 q0 44 -18.5 77.5t-48 52t-61.5 27.5t-64 9t-64 -9t-61.5 -27.5t-47.5 -52t-18 -77.5v-381z" />
<glyph unicode="&#x26;" horiz-adv-x="1619" d="M84 1036q0 114 50 220.5t137.5 187t214.5 128.5t272 48q173 0 314.5 -63t232 -171.5t139.5 -250.5t49 -304q0 -183 -80.5 -344t-214.5 -282q181 -173 326 -230l-37 -69q-173 78 -350 244q-104 -81 -228 -123.5t-241 -42.5q-188 0 -307 100t-119 287q0 137 92 246t270 206 q-127 170 -127 297q0 119 74.5 201t196.5 82q120 0 198 -75.5t78 -182.5q0 -105 -76 -190.5t-221 -161.5q160 -251 420 -535q122 114 195 262.5t73 313.5q0 144 -42.5 271.5t-123 226.5t-207 156.5t-282.5 57.5q-127 0 -240 -41.5t-191 -111t-123.5 -161.5t-45.5 -192 q0 -157 102 -297l-63 -45q-115 157 -115 338zM324 375q0 -155 95 -236.5t240 -81.5q103 0 214 37t212 111q-190 199 -436 553q-325 -171 -325 -383zM563 1124q0 -97 119 -264q58 30 99 57t79.5 62.5t58 77t19.5 88.5q0 77 -58 128.5t-135 51.5q-61 0 -104.5 -35t-60.5 -79 t-17 -87z" />
<glyph unicode="'" horiz-adv-x="432" d="M184 1063v362h78v-362h-78z" />
<glyph unicode="(" horiz-adv-x="536" d="M135 614q0 230 90 459.5t238 401.5l45 -27q-127 -181 -198.5 -397.5t-71.5 -425.5q0 -222 72.5 -441t197.5 -397l-39 -31q-147 170 -240.5 397.5t-93.5 460.5z" />
<glyph unicode=")" horiz-adv-x="536" d="M55 -217q125 178 197 397t72 441q0 211 -71 426.5t-198 396.5l43 26q150 -171 240 -400.5t90 -459.5q0 -232 -93.5 -460t-238.5 -398z" />
<glyph unicode="*" horiz-adv-x="702" d="M61 1186q1 5 13 40t14 44l242 -101l-17 256h86l-16 -256l244 101l26 -86l-247 -72l165 -197q-3 -2 -34 -26t-39 -29l-142 221l-139 -223l-72 57l162 197q-14 3 -124.5 37t-121.5 37z" />
<glyph unicode="+" d="M61 535v77h385v394h76v-394h385v-77h-385v-398h-76v398h-385z" />
<glyph unicode="," horiz-adv-x="409" d="M123 68q0 32 24.5 53.5t59.5 21.5q42 0 67 -31t25 -81q0 -69 -41 -134t-102 -96l-33 41q81 60 84 148q-37 -2 -60.5 20t-23.5 58z" />
<glyph unicode="-" horiz-adv-x="757" d="M109 502v88h540v-88h-540z" />
<glyph unicode="." horiz-adv-x="385" d="M113 74q0 31 22.5 53.5t59.5 22.5q34 0 57.5 -23t23.5 -53q0 -36 -22 -60t-59 -24q-38 0 -60 23.5t-22 60.5z" />
<glyph unicode="/" horiz-adv-x="593" d="M4 -51l502 1521h80l-502 -1521h-80z" />
<glyph unicode="0" d="M76 354v705q0 156 120.5 261t288.5 105q173 0 291.5 -104.5t118.5 -261.5v-709q0 -156 -119 -259t-291 -103q-174 0 -291.5 104t-117.5 262zM170 377q0 -79 30 -140t78 -95t101 -51t106 -17t106.5 17t102 51t79 95t30.5 140v655q0 79 -30.5 141t-79.5 96t-102 51t-106 17 q-42 0 -84 -10t-84 -33.5t-74.5 -57.5t-52.5 -87t-20 -117v-655z" />
<glyph unicode="1" d="M270 1184q17 15 148.5 116t144.5 111h92v-1411h-94v1296l-239 -184q-48 67 -52 72z" />
<glyph unicode="2" d="M78 0v119q0 93 33.5 176.5t96 154t129 124t155.5 110.5q303 187 303 381q0 56 -18 102t-49 76.5t-73 51.5t-88.5 30.5t-97.5 9.5q-177 0 -322 -110l-53 71q66 55 164 91t205 36q86 0 160.5 -19.5t136 -59.5t97.5 -110t36 -163q0 -126 -92 -240.5t-234 -203.5 q-59 -37 -102 -66.5t-102 -80.5t-96 -98.5t-64 -112t-27 -130.5v-55h713v-84h-811z" />
<glyph unicode="3" d="M61 119q5 8 28 37t28 37q147 -121 319 -121q144 0 240 85.5t96 225.5q0 139 -79.5 222t-184.5 83h-156v86h156q38 0 80 18t81.5 51.5t65 92t25.5 129.5q0 57 -18 103.5t-47 77t-68 51t-79.5 29.5t-82.5 9q-86 0 -169.5 -31.5t-143.5 -80.5l-58 71q86 66 172.5 96.5 t202.5 30.5q74 0 141 -20.5t123 -61.5t89.5 -111t33.5 -159q0 -111 -57 -204.5t-162 -127.5q77 -25 130 -82t75 -123t22 -139q0 -186 -122.5 -295.5t-303.5 -109.5q-218 0 -377 131z" />
<glyph unicode="4" d="M51 231v86q200 446 486 1094h98l-481 -1094h536v443h96v-443h125v-86h-125v-231h-96v231h-639z" />
<glyph unicode="5" d="M94 123l58 72q144 -123 305 -123q38 0 78 7.5t85.5 28t81 52t59 85t23.5 120.5v202q0 130 -61 197t-170 67q-73 0 -174 -42.5t-182 -96.5q-5 2 -28 11t-43 16.5t-26 9.5v682h740v-88h-643v-530q99 62 197 97.5t163 35.5q151 0 235.5 -92t84.5 -250v-238q0 -156 -119 -257 t-301 -101q-117 0 -203 36.5t-160 98.5z" />
<glyph unicode="6" d="M86 348v713q0 160 118.5 262t289.5 102q213 0 354 -133l-62 -73q-119 116 -292 116q-40 0 -81.5 -10t-84 -33.5t-75 -57.5t-53 -88t-20.5 -120v-311q245 149 389 149q149 0 232.5 -92.5t83.5 -251.5v-164q0 -159 -117 -262.5t-287 -103.5t-282.5 99.5t-112.5 258.5z M180 377q0 -63 19 -115t49.5 -86t70 -57.5t80.5 -34t82 -10.5q52 0 104 18t99.5 52.5t77 95t29.5 137.5v129q0 129 -62 196.5t-166 67.5q-79 0 -172 -40.5t-211 -111.5v-241z" />
<glyph unicode="7" d="M84 1102v309h797v-90l-535 -1321h-102l536 1325h-604v-223h-92z" />
<glyph unicode="8" d="M57 375q0 106 65.5 205.5t186.5 142.5q-105 37 -163 125.5t-58 191.5q0 119 56.5 207.5t145 131t193.5 42.5q106 1 196 -40.5t148 -129t58 -204.5q0 -68 -24.5 -130t-77.5 -115t-128 -79q68 -20 118.5 -59t78 -87t40.5 -96t13 -96q0 -95 -35.5 -172t-95.5 -125.5 t-136 -74t-161 -25.5q-86 0 -161 24.5t-133 71.5t-92 122t-34 169zM154 375q0 -136 88 -218.5t239 -82.5q145 0 236.5 83t91.5 222q0 131 -93 216t-235 85q-134 0 -230.5 -86.5t-96.5 -218.5zM180 1044q0 -124 88.5 -203t212.5 -79q123 0 216.5 80.5t93.5 204.5 q0 136 -91 212t-215 76q-58 0 -111.5 -18.5t-97 -53.5t-70 -92t-26.5 -127z" />
<glyph unicode="9" d="M82 897v160q0 159 117 263.5t286 104.5q166 0 281 -100t115 -258v-713q0 -159 -119 -261.5t-289 -102.5q-217 0 -354 133l61 74q120 -117 291 -117q41 0 82.5 9.5t83.5 33t74 57.5t52.5 88.5t20.5 120.5v313q-250 -149 -387 -149q-150 0 -232.5 91t-82.5 253zM174 911 q0 -129 62.5 -196.5t166.5 -67.5q77 0 167.5 39.5t213.5 112.5v239q0 78 -28 138t-73 94.5t-95.5 51.5t-102.5 17q-53 0 -105.5 -17.5t-99.5 -52t-76.5 -94.5t-29.5 -137v-127z" />
<glyph unicode=":" horiz-adv-x="407" d="M119 74q0 30 23 53t59 23q35 0 59.5 -23t24.5 -53q0 -36 -23 -60t-59 -24q-38 0 -61 23.5t-23 60.5zM119 731q0 33 23 56.5t59 23.5q35 0 59.5 -23.5t24.5 -56.5q0 -34 -23 -58t-59 -24q-38 0 -61 23t-23 59z" />
<glyph unicode=";" horiz-adv-x="407" d="M115 68q0 32 24.5 53.5t59.5 21.5q42 0 67 -31t25 -81q0 -69 -41.5 -134t-102.5 -96l-32 41q81 60 84 148q-37 -2 -60.5 20t-23.5 58zM119 731q0 33 23 56.5t59 23.5q35 0 59.5 -23.5t24.5 -56.5q0 -34 -23.5 -58t-58.5 -24q-38 0 -61 23t-23 59z" />
<glyph unicode="&#x3c;" d="M72 537v73l821 373v-84l-727 -326q67 -29 351 -156t378 -167v-86z" />
<glyph unicode="=" d="M61 334v78h846v-78h-846zM61 696v76h846v-76h-846z" />
<glyph unicode="&#x3e;" d="M72 164v86q84 36 364.5 161.5t364.5 161.5l-727 326v84l821 -373v-73z" />
<glyph unicode="?" horiz-adv-x="884" d="M66 1335q155 95 340 95q171 0 268.5 -93t97.5 -239q0 -58 -22.5 -117.5t-56 -106t-73 -100t-73 -99.5t-56 -104t-22.5 -114v-131h-84v131q0 78 30.5 153.5t73.5 134.5t86.5 115t74 116t30.5 116q0 115 -76.5 186.5t-210.5 71.5q-152 0 -284 -86zM354 72q0 29 21 51t55 22 q33 0 56.5 -22.5t23.5 -50.5q0 -34 -21.5 -55t-56.5 -21q-36 0 -57 21t-21 55z" />
<glyph unicode="@" horiz-adv-x="1714" d="M102 686q0 213 109.5 386.5t294 269.5t403.5 96q165 0 300.5 -54t225 -148t138.5 -222t49 -275q0 -110 -28 -195t-74 -134t-101 -74t-114 -25q-72 0 -129.5 29.5t-79.5 91.5q-177 -108 -314 -108q-112 0 -179.5 58.5t-67.5 166.5q0 61 25 107t65 71.5t83.5 38t88.5 12.5 h280v70q0 117 -57 161t-168 44q-110 0 -223 -76l-47 63q125 88 274 88q153 0 226 -67t73 -199v-348q2 -55 41 -94t115 -39q98 0 166.5 94t68.5 264q0 180 -77 322t-222.5 223.5t-337.5 81.5q-148 0 -282.5 -51.5t-233 -141t-157 -216t-58.5 -269.5q0 -194 88.5 -350.5 t244.5 -245t349 -88.5q137 0 260 53l29 -69q-138 -56 -289 -56q-163 0 -304 57t-240.5 156.5t-156.5 239.5t-57 301zM618 551q0 -76 50 -116t125 -40q117 0 284 113v201h-250q-209 0 -209 -158z" />
<glyph unicode="A" horiz-adv-x="1163" d="M41 0l487 1411h111l491 -1411h-104q-46 133 -121 340h-645q-43 -133 -115 -340h-104zM293 430h581q-23 71 -144 430t-146 430h-2q-103 -318 -289 -860z" />
<glyph unicode="B" horiz-adv-x="1175" d="M115 0v1411l557 -2q188 0 288.5 -100.5t100.5 -253.5q0 -63 -18 -119t-70 -110t-133 -83q66 -20 115 -61t76 -92t39.5 -102t12.5 -103q0 -103 -44 -189.5t-133.5 -141t-209.5 -54.5h-581zM213 88h461q137 0 224 76.5t87 220.5q0 138 -90.5 225.5t-216.5 87.5h-465v-610z M213 788h459q116 0 201 69.5t85 195.5q0 137 -87.5 202.5t-223.5 65.5h-434v-533z" />
<glyph unicode="C" horiz-adv-x="1028" d="M104 459v499q0 205 138 336t358 131q216 0 365 -104l-54 -80q-136 94 -311 94q-61 0 -117.5 -14t-108 -45t-89 -76t-60 -112t-22.5 -148v-465q0 -99 34 -178t90.5 -126.5t125 -72t141.5 -24.5q182 0 321 100l52 -76q-63 -47 -159 -79.5t-208 -32.5q-224 0 -360 132 t-136 341z" />
<glyph unicode="D" horiz-adv-x="1189" d="M115 0v1411h522q209 0 332 -127.5t123 -335.5v-491q0 -203 -127.5 -330t-333.5 -127h-516zM213 86h391q73 0 139 21t123 65t91 122t34 181v457q0 102 -32 179.5t-85 122t-115 66t-130 21.5h-416v-1235z" />
<glyph unicode="E" horiz-adv-x="1089" d="M117 0v1411h907v-90h-809v-561h696v-88h-696v-584h809v-88h-907z" />
<glyph unicode="F" horiz-adv-x="1056" d="M117 0v1411h909v-90h-811v-561h696v-90h-696v-670h-98z" />
<glyph unicode="G" horiz-adv-x="1124" d="M98 459v499q0 205 141 336t367 131q223 0 369 -104l-53 -80q-136 94 -316 94q-63 0 -121.5 -14t-111 -45t-91.5 -76t-62 -112t-23 -148v-465q0 -100 33.5 -178.5t90.5 -126t127 -72t148 -24.5q188 0 332 114v420h-244v92h342v-553q-170 -161 -428 -161q-224 0 -362 132 t-138 341z" />
<glyph unicode="H" horiz-adv-x="1220" d="M113 0v1411h96v-649h799v649h102v-1411h-102v674h-799v-674h-96z" />
<glyph unicode="I" horiz-adv-x="442" d="M172 0v1411h98v-1411h-98z" />
<glyph unicode="J" horiz-adv-x="1032" d="M53 74l47 80q138 -80 269 -80q178 0 285.5 101.5t107.5 303.5v934h98v-952q0 -213 -128 -344t-357 -131q-178 0 -322 88z" />
<glyph unicode="K" horiz-adv-x="1103" d="M113 0v1411h98v-874l709 874h118l-438 -545l502 -866h-115l-455 784q-38 -47 -148.5 -185.5t-172.5 -213.5v-385h-98z" />
<glyph unicode="L" horiz-adv-x="1028" d="M119 0v1411h98v-1323h803v-88h-901z" />
<glyph unicode="M" horiz-adv-x="1447" d="M113 0v1411h98q46 -95 152 -309.5t161 -329.5q170 -352 205 -422l74 148l129 274q236 484 309 639h92v-1411h-98v1182h-2q-112 -241 -221 -467q-110 -220 -240 -490h-82l-250 502l-225 457h-4v-1184h-98z" />
<glyph unicode="N" horiz-adv-x="1255" d="M115 0v1411h98l524 -790q231 -352 303 -455v1245h99v-1411h-105q-76 114 -249 376t-267 402q-23 35 -92 141t-117 178t-96 140v-1237h-98z" />
<glyph unicode="O" horiz-adv-x="1202" d="M104 457v501q0 207 134.5 337t361.5 130q223 0 360.5 -131t137.5 -336v-507q0 -210 -136.5 -337.5t-361.5 -127.5q-226 0 -361 129.5t-135 341.5zM203 467q0 -99 34.5 -177t92 -123.5t126.5 -69t144 -23.5q84 0 155 24t126 71t86.5 123.5t31.5 174.5v473q0 98 -32.5 175 t-88.5 124t-126.5 71.5t-151.5 24.5q-84 0 -155 -24t-125.5 -71.5t-85.5 -124.5t-31 -175v-473z" />
<glyph unicode="P" horiz-adv-x="1103" d="M113 0v1411h553q95 0 171.5 -35t123.5 -93.5t71.5 -129t24.5 -145.5q0 -101 -44.5 -191.5t-135.5 -150.5t-211 -60h-457v-606h-96zM209 698h438q131 0 220 84t89 226q0 139 -89.5 226t-219.5 87h-438v-623z" />
<glyph unicode="Q" horiz-adv-x="1202" d="M104 457v501q0 207 134.5 337t361.5 130q223 0 360.5 -131t137.5 -336v-507q0 -198 -124 -324.5t-329 -138.5v-66q0 -99 45 -140.5t146 -41.5q31 0 49 2v-86q-50 -4 -72 -4q-136 0 -198 66t-62 198v72q-206 12 -327.5 140t-121.5 329zM203 467q0 -99 34.5 -177t92 -123.5 t126.5 -69t144 -23.5q84 0 155 24t126 71t86.5 123.5t31.5 174.5v473q0 98 -32.5 175t-88.5 124t-126.5 71.5t-151.5 24.5q-84 0 -155 -24t-125.5 -71.5t-85.5 -124.5t-31 -175v-473z" />
<glyph unicode="R" horiz-adv-x="1136" d="M115 0v1411h553q78 0 144.5 -23t112.5 -62.5t78 -92t47 -110t15 -117.5q0 -81 -30.5 -157t-96.5 -138t-156 -86l275 -625h-109l-264 606h-471v-606h-98zM213 696h440q132 0 222 84t90 226q0 141 -90 227t-222 86h-440v-623z" />
<glyph unicode="S" horiz-adv-x="1097" d="M61 127l56 76q209 -127 432 -127q167 0 274 78.5t107 216.5q0 46 -12 84t-30.5 65.5t-50.5 50.5t-61 37.5t-73.5 28t-76.5 20.5t-81 17q-74 14 -132 30.5t-120.5 46.5t-103.5 69t-68 98.5t-27 134.5q0 169 120.5 273t324.5 104q248 0 419 -93l-45 -86q-169 88 -383 88 q-90 0 -163.5 -28.5t-122.5 -96t-49 -165.5q0 -56 23.5 -101t57.5 -73t90 -51t101 -35t111 -25q86 -18 147 -36t123 -48.5t99.5 -70.5t61 -100t23.5 -138q0 -177 -132 -280t-353 -103q-265 0 -486 139z" />
<glyph unicode="T" horiz-adv-x="1050" d="M35 1319v92h979v-92h-439v-1319h-98v1319h-442z" />
<glyph unicode="U" horiz-adv-x="1208" d="M106 451v960h101v-944q0 -100 33 -177t89.5 -122.5t126 -68.5t148.5 -23q81 0 151 23t127 68.5t89.5 122.5t32.5 177v944h100v-962q0 -209 -140 -336t-360 -127q-221 0 -359.5 128t-138.5 337z" />
<glyph unicode="V" horiz-adv-x="1114" d="M35 1411h106l217 -672l193 -604q6 17 17 48t20 55.5t16 46.5l65 201.5t83 261.5l217 663h106q-285 -861 -465 -1411h-114z" />
<glyph unicode="W" horiz-adv-x="1716" d="M20 1411h107l197 -762q54 -217 133 -518h2l137 520l201 760h104l201 -766l135 -512h4l131 514l199 764h104q-161 -596 -377 -1411h-120l-197 741l-131 502l-180 -682l-152 -561h-119z" />
<glyph unicode="X" horiz-adv-x="1026" d="M23 0l436 725l-406 686h115l344 -600l344 600h115l-406 -686l436 -725h-114l-375 637l-375 -637h-114z" />
<glyph unicode="Y" horiz-adv-x="1003" d="M25 1411h108l160 -332l153 -327q40 -74 58 -111l207 442l157 328h105q-115 -242 -422 -876v-535h-98v530q-82 172 -237.5 490.5t-190.5 390.5z" />
<glyph unicode="Z" horiz-adv-x="1056" d="M82 0v86l780 1235h-747v90h864v-88l-778 -1235h776v-88h-895z" />
<glyph unicode="[" horiz-adv-x="479" d="M156 -223v1650h290v-71h-202v-1510h202v-69h-290z" />
<glyph unicode="\" horiz-adv-x="598" d="M-8 1485h74l516 -1571h-74z" />
<glyph unicode="]" horiz-adv-x="479" d="M72 -154h200v1510h-200v71h288v-1650h-288v69z" />
<glyph unicode="^" horiz-adv-x="956" d="M92 682l350 737h74l346 -735h-84l-301 647q-31 -75 -149.5 -325t-149.5 -324h-86z" />
<glyph unicode="_" horiz-adv-x="1009" d="M0 -143h1010v-76h-1010v76z" />
<glyph unicode="`" horiz-adv-x="987" d="M422 1454l98 39l162 -315l-57 -25z" />
<glyph unicode="a" horiz-adv-x="954" d="M66 272q0 61 21.5 111.5t55.5 82.5t79 54t90 31.5t91 9.5h365v101q0 270 -285 270q-168 0 -301 -94l-49 73q156 105 356 105q198 0 283.5 -87.5t85.5 -252.5v-676h-74l-16 125h-2q-132 -83 -221 -110t-164 -27q-143 0 -229 74t-86 210zM162 272q0 -101 64.5 -151.5 t166.5 -50.5q139 0 375 143v268h-330q-276 0 -276 -209z" />
<glyph unicode="b" horiz-adv-x="983" d="M109 0v1464h92v-598q151 94 234 123t153 29q152 0 231.5 -86t79.5 -258v-344q0 -167 -87 -254.5t-232 -87.5q-49 0 -88 5.5t-117.5 35.5t-173.5 86l-17 -115h-75zM201 211q96 -63 198 -100t172 -37q236 0 236 280v297q0 146 -57 211.5t-175 65.5q-66 0 -168 -45 t-206 -115v-557z" />
<glyph unicode="c" horiz-adv-x="839" d="M100 354v303q0 162 109 262.5t280 100.5q197 0 306 -96l-58 -74q-104 84 -239 84q-60 0 -112 -17t-96 -51t-69.5 -94t-25.5 -139v-256q0 -78 25.5 -137.5t69 -94t96 -52t110.5 -17.5q56 0 125.5 19.5t115.5 54.5l56 -70q-120 -90 -301 -90q-179 0 -285.5 101t-106.5 263z " />
<glyph unicode="d" horiz-adv-x="983" d="M94 330v338q0 167 94.5 258.5t257.5 91.5q154 0 347 -92v538h90v-1462h-74l-16 131q-230 -145 -381 -145q-150 0 -234 85.5t-84 256.5zM184 350q0 -144 59.5 -210t172.5 -66q69 0 172.5 42.5t204.5 112.5v600q-205 103 -338 103q-271 0 -271 -287v-295z" />
<glyph unicode="e" horiz-adv-x="954" d="M100 354v285q0 170 110.5 274.5t283.5 104.5q167 0 273.5 -104.5t106.5 -270.5v-178h-681v-94q0 -81 25.5 -141t70 -94.5t98 -51t115.5 -16.5q158 0 272 108l57 -65q-123 -123 -333 -123q-177 0 -287.5 95.5t-110.5 270.5zM193 545h589v86q0 79 -25 139.5t-66.5 95 t-91.5 51.5t-105 17q-57 0 -109.5 -18t-96 -53.5t-69.5 -96t-26 -137.5v-84z" />
<glyph unicode="f" horiz-adv-x="577" d="M63 922v86h123v223q0 118 66 180t168 62h147v-84h-129q-91 0 -125 -47.5t-34 -131.5v-202h288v-86h-288v-922h-93v922h-123z" />
<glyph unicode="g" horiz-adv-x="980" d="M90 330v344q0 166 87.5 254t232.5 88q49 0 90 -6t119 -37t169 -88l17 121h76v-1086q0 -168 -112 -260t-296 -92q-89 0 -176.5 24.5t-149.5 75.5l60 72q48 -39 124.5 -62.5t143.5 -23.5t121.5 15.5t99 49t68.5 92.5t24 140v186q-222 -145 -385 -149h-10q-140 0 -220 86 q-83 88 -83 256zM182 354q0 -146 56 -212t172 -66q73 0 173.5 42.5t204.5 112.5v553q-208 144 -370 144q-236 0 -236 -279v-295z" />
<glyph unicode="h" horiz-adv-x="980" d="M100 0v1466h93v-600q240 152 391 152q155 0 231 -85.5t76 -258.5v-674h-92v651q0 146 -56.5 211.5t-173.5 65.5q-69 0 -171.5 -43.5t-204.5 -108.5v-776h-93z" />
<glyph unicode="i" horiz-adv-x="378" d="M123 1337q0 27 19.5 46.5t45.5 19.5q28 0 48 -19t20 -47t-20 -47.5t-48 -19.5q-26 0 -45.5 19.5t-19.5 47.5zM143 0v1006h90v-1006h-90z" />
<glyph unicode="j" horiz-adv-x="450" d="M-18 -344h63q82 0 115 40t33 142v1168h92v-1184q0 -130 -56 -190t-172 -60h-75v84zM174 1337q0 27 19.5 46.5t46.5 19.5q28 0 47.5 -19t19.5 -47t-19.5 -47.5t-47.5 -19.5q-26 0 -46 20t-20 47z" />
<glyph unicode="k" horiz-adv-x="919" d="M100 0v1466h90v-841h234q71 0 126 30t93 109l117 246h100l-117 -258q-30 -64 -65 -103.5t-96 -62.5q38 -6 67 -24t49 -48.5t31.5 -56.5t24.5 -66l135 -391h-101l-122 350q-40 116 -84.5 150.5t-145.5 34.5h-246v-535h-90z" />
<glyph unicode="l" horiz-adv-x="512" d="M186 217v1249h90v-1235q0 -93 34 -125q30 -27 101 -27q11 0 23 1l4 -84q-25 -4 -65 -4q-102 0 -144.5 54.5t-42.5 170.5z" />
<glyph unicode="m" horiz-adv-x="1513" d="M92 0v1006h76l16 -140q113 87 192 119.5t152 32.5q189 0 252 -172q201 172 355 172q144 0 217 -85.5t73 -248.5v-684h-92v655q0 134 -48.5 203.5t-162.5 69.5q-126 0 -325 -162q8 -49 8 -92v-674h-92v657q0 133 -47 203t-156 70q-126 0 -326 -154v-776h-92z" />
<glyph unicode="n" horiz-adv-x="983" d="M98 0v1006h76l16 -140q138 85 225.5 118.5t159.5 33.5q151 0 232.5 -86.5t81.5 -257.5v-674h-92v651q0 145 -61 212q-59 65 -172 65h-7q-136 0 -367 -156v-772h-92z" />
<glyph unicode="o" horiz-adv-x="980" d="M94 352v307q0 160 115.5 259.5t282.5 99.5q172 0 283.5 -98.5t111.5 -260.5v-305q0 -169 -108.5 -267.5t-289.5 -98.5q-178 0 -286.5 99.5t-108.5 264.5zM186 375q0 -80 25 -140t68.5 -95t97.5 -51.5t117 -16.5q132 0 217.5 75.5t85.5 227.5v256q0 79 -27 139t-71.5 94 t-96.5 51t-108 17q-58 0 -110.5 -17t-98 -51t-72.5 -94t-27 -139v-256z" />
<glyph unicode="p" horiz-adv-x="983" d="M102 -416v1417h74l17 -131q235 148 380 148q150 0 234 -86.5t84 -255.5v-340q0 -168 -92.5 -259t-259.5 -91q-158 0 -346 94v-496h-91zM193 174q201 -102 337 -102q271 0 271 284v297q0 277 -232 277q-68 0 -170.5 -43t-205.5 -113v-600z" />
<glyph unicode="q" horiz-adv-x="978" d="M92 330v346q0 167 86.5 254.5t231.5 87.5q74 0 160.5 -25t220.5 -104l16 115h74v-1422h-90v551q-134 -87 -223 -116t-162 -29q-149 0 -231.5 86.5t-82.5 255.5zM182 354q0 -143 58 -212q57 -66 168 -66h6q73 0 173.5 40.5t203.5 114.5v562q-100 66 -201 102.5t-172 36.5 q-236 0 -236 -281v-297z" />
<glyph unicode="r" horiz-adv-x="606" d="M137 0v1006h80l14 -150h2q67 60 170 108t197 54v-107q-187 -18 -369 -139v-772h-94z" />
<glyph unicode="s" horiz-adv-x="899" d="M78 94l49 72q143 -103 338 -103q50 0 95 10.5t86.5 33.5t66 65.5t24.5 99.5q0 84 -67.5 129t-227.5 72q-41 7 -71 13t-68.5 17t-66 24t-56 32.5t-46 43.5t-29 57t-11.5 73q0 126 94 205.5t252 79.5q208 0 338 -86l-47 -70q-128 76 -285 76q-119 0 -190.5 -55.5 t-71.5 -149.5q0 -42 20 -73t61.5 -51.5t87.5 -33t116 -24.5q46 -8 73 -13.5t70 -17.5t69 -24.5t57.5 -34t49 -47.5t29.5 -63.5t12 -82.5q0 -124 -98.5 -202t-269.5 -78q-234 0 -383 106z" />
<glyph unicode="t" horiz-adv-x="684" d="M63 922v86h156l25 237h65v-237h299v-86h-299v-613q0 -128 42.5 -180.5t144.5 -52.5q67 0 141 14l14 -80q-68 -20 -168 -20q-147 0 -206.5 67.5t-59.5 225.5v639h-154z" />
<glyph unicode="u" horiz-adv-x="987" d="M94 332v674h92v-652q0 -278 240 -278q141 0 367 160v770h94v-1006h-78l-16 139q-137 -85 -220.5 -118t-154.5 -33q-157 0 -240.5 86.5t-83.5 257.5z" />
<glyph unicode="v" horiz-adv-x="882" d="M25 1006h100l135 -381q18 -51 79.5 -228.5t96.5 -275.5q78 209 178 502q15 43 43.5 120.5t51.5 142t41 120.5h102q-34 -93 -367 -1006h-98q-68 181 -188.5 521.5t-173.5 484.5z" />
<glyph unicode="w" horiz-adv-x="1374" d="M18 1006h97q34 -115 108 -373l148 -504h2q123 368 186 551q10 28 80 235h98l133 -391l134 -395h2q87 292 145 496l109 381h94l-295 -1006h-98l-158 461l-115 334h-2l-117 -349l-151 -446h-99z" />
<glyph unicode="x" horiz-adv-x="821" d="M16 0l336 514l-319 492h112l261 -416l264 416h112l-323 -490l338 -516h-115l-276 438l-277 -438h-113z" />
<glyph unicode="y" horiz-adv-x="876" d="M14 1004h97q32 -89 85 -253.5t70 -215.5l154 -455h2l166 455q16 45 77 212t93 257h96q-98 -267 -277.5 -755.5t-240.5 -654.5h-98l147 410l-57 59z" />
<glyph unicode="z" horiz-adv-x="860" d="M61 0v76l609 850h-576v80h684v-76l-604 -848h604v-82h-717z" />
<glyph unicode="{" horiz-adv-x="479" d="M59 578v51q148 37 148 309v276q0 96 43.5 153.5t118.5 57.5h96v-59h-70q-112 0 -112 -192v-275q0 -116 -42.5 -194.5t-95.5 -98.5v-2q57 -19 97.5 -93.5t40.5 -186.5v-295q0 -193 112 -193h70v-59h-96q-76 0 -120 55.5t-44 153.5v286q0 140 -31 212.5t-115 93.5z" />
<glyph unicode="|" horiz-adv-x="356" d="M147 -332v1798h70v-1798h-70z" />
<glyph unicode="}" horiz-adv-x="479" d="M57 -164h70q113 0 113 193v295q0 113 39.5 187.5t97.5 92.5v2q-53 19 -95 97.5t-42 195.5v275q0 38 -3 65t-13.5 59.5t-34.5 50t-62 17.5h-70v57h95q79 0 121 -57t42 -152v-276q0 -272 148 -309v-51q-84 -21 -115 -93.5t-31 -212.5v-286q0 -94 -44 -151.5t-119 -57.5h-97 v59z" />
<glyph unicode="~" d="M47 537q44 63 102 98t123 35q49 0 109 -19.5t107.5 -43t106 -43t105.5 -19.5q52 0 84.5 23.5t73.5 80.5l64 -45q-43 -69 -95 -105t-127 -36q-48 0 -110 19t-112.5 42.5t-108.5 42.5t-99 19q-48 0 -84.5 -24t-79.5 -73z" />
<glyph unicode="&#xa1;" horiz-adv-x="432" d="M139 938q0 34 21.5 56t56.5 22t56.5 -22t21.5 -56q0 -29 -22 -51.5t-56 -22.5q-33 0 -55.5 22.5t-22.5 51.5zM170 -414q1 176 5 558t5 554h78q1 -172 5 -554t5 -558h-98z" />
<glyph unicode="&#xa2;" horiz-adv-x="907" d="M100 354v303q0 154 99.5 253t259.5 108v227h55v-225q179 -7 281 -96l-58 -74q-96 76 -223 84v-858q56 3 119 22t104 52l56 -70q-110 -83 -279 -90v-223h-55v225q-166 9 -262.5 108t-96.5 254zM195 377q0 -140 75.5 -214.5t188.5 -86.5v856q-114 -10 -189 -84t-75 -215 v-256z" />
<glyph unicode="&#xa3;" d="M76 616v72h162q-7 45 -29 113q-6 19 -22.5 66.5t-25 74t-16.5 66.5t-8 73q0 145 93.5 245.5t265.5 100.5q128 0 216.5 -43.5t151.5 -132.5l-69 -53q-108 148 -303 148q-42 0 -84.5 -13t-83.5 -41t-67 -83t-26 -128q0 -60 33 -157q4 -12 14.5 -42t15.5 -45.5t13 -42 t14 -52t11 -54.5h307v-72h-301q-2 -158 -36 -288t-120 -246h711v-82h-815v74q174 231 174 532v10h-176z" />
<glyph unicode="&#xa4;" d="M82 328l119 118q-72 101 -72 218q-3 113 78 221l-119 119q14 16 55 57l119 -119q103 78 223 78q110 0 217 -74l119 119q7 -8 56 -57l-119 -119q86 -106 86 -225q0 -116 -78 -224l119 -116q-8 -10 -58 -60l-118 119q-97 -79 -224 -82q-123 3 -227 88l-119 -119 q-7 8 -29 29.5t-28 28.5zM213 664q0 -116 78 -195.5t192 -79.5q117 0 196 79.5t79 195.5t-79 195t-194 79q-116 -2 -194 -80.5t-78 -193.5z" />
<glyph unicode="&#xa5;" d="M49 1411h109l325 -766q65 141 174.5 403.5t153.5 362.5h104q-61 -144 -180.5 -416.5t-138.5 -316.5h301v-68h-330l-32 -75v-138h362v-65h-362v-332h-99v332h-348v65h348v133l-35 80h-315v68h287z" />
<glyph unicode="&#xa6;" horiz-adv-x="356" d="M147 -332v842h70v-842h-70zM147 625v841h70v-841h-70z" />
<glyph unicode="&#xa7;" horiz-adv-x="901" d="M98 725q0 62 32.5 124.5t96.5 113.5q-38 35 -63 84.5t-25 101.5q0 132 88.5 211.5t229.5 79.5q167 0 284 -86q-28 -44 -45 -74q-108 82 -243 82q-98 0 -163 -54t-65 -143q0 -129 150 -192q13 -6 56 -23.5t60.5 -25.5t57.5 -26t59 -30t52 -32.5t50 -37.5t39.5 -41.5 t33 -48.5t18.5 -54t8 -62q0 -146 -113 -242q74 -87 74 -196q0 -137 -94.5 -219t-255.5 -82q-81 0 -162 29t-137 75l43 63q117 -90 252 -90q119 0 194.5 54t75.5 163q0 93 -67 150.5t-209 112.5q-169 65 -240.5 132.5t-71.5 182.5zM180 731q0 -37 12 -67.5t28.5 -50.5 t45.5 -39t50 -28.5t55.5 -24.5t50.5 -23q145 -60 203 -97q98 66 98 185q0 36 -11.5 68t-27 55.5t-47.5 48t-55 39.5t-69 35.5t-70.5 30t-77.5 29.5t-74 28q-45 -37 -78 -90.5t-33 -98.5z" />
<glyph unicode="&#xa8;" horiz-adv-x="954" d="M231 1331q0 27 19.5 46.5t44.5 19.5q28 0 47.5 -19t19.5 -47q0 -26 -19.5 -45.5t-47.5 -19.5q-25 0 -44.5 19.5t-19.5 45.5zM575 1331q0 27 19.5 46.5t46.5 19.5q28 0 47 -19t19 -47q0 -27 -19.5 -46t-46.5 -19q-26 0 -46 19.5t-20 45.5z" />
<glyph unicode="&#xa9;" horiz-adv-x="1597" d="M106 698q0 203 92 368.5t252 259t355 93.5q147 0 277 -55t223.5 -150.5t147.5 -229.5t54 -286q0 -202 -92 -366.5t-253 -258t-357 -93.5t-356 93.5t-251.5 258t-91.5 366.5zM182 698q0 -134 48.5 -254t131.5 -206.5t198.5 -137.5t244.5 -51q174 0 318.5 86t227.5 235.5 t83 327.5q0 181 -83 330.5t-227.5 235.5t-318.5 86q-172 0 -315.5 -86t-225.5 -235.5t-82 -330.5zM489 569v248q0 139 90 226t238 87q144 0 248 -71l-41 -62q-91 64 -207 64q-68 0 -123.5 -25t-93 -84.5t-37.5 -146.5v-223q0 -126 74 -193t176 -67q119 0 213 67l43 -59 q-113 -76 -252 -76q-150 0 -239 87.5t-89 227.5z" />
<glyph unicode="&#xaa;" horiz-adv-x="657" d="M41 754q0 52 22.5 91t59.5 60.5t77 32t81 10.5h237v58q0 89 -47.5 126t-136.5 37q-109 0 -207 -63l-41 63q119 72 250 72q264 0 264 -227v-443h-70l-10 78q-137 -88 -256 -88q-101 0 -162 51t-61 142zM123 754q0 -59 42.5 -90t106.5 -31q95 0 246 90v158h-215 q-180 0 -180 -127z" />
<glyph unicode="&#xab;" horiz-adv-x="833" d="M127 449l242 352h90l-236 -352l236 -355h-94zM403 449l242 352h90l-235 -352l235 -355h-92z" />
<glyph unicode="&#xac;" d="M61 535v77h846l-2 -475h-74v398h-770z" />
<glyph unicode="&#xad;" horiz-adv-x="757" d="M109 502v88h540v-88h-540z" />
<glyph unicode="&#xae;" horiz-adv-x="1118" d="M145 1008q0 185 121 308.5t297 123.5q179 0 298.5 -123t119.5 -309q0 -184 -120 -307t-298 -123q-176 0 -297 123.5t-121 306.5zM199 1008q0 -163 104.5 -273t259.5 -110t260 110t105 273t-105 273t-260 110t-259.5 -110t-104.5 -273zM408 758v499h198q66 0 108 -36.5 t42 -96.5q0 -52 -31 -89t-84 -48l121 -229h-62l-114 223h-125v-223h-53zM461 1030h135q48 0 77 24t29 70q0 42 -30 64t-74 22h-137v-180z" />
<glyph unicode="&#xaf;" horiz-adv-x="970" d="M264 1214v84h522v-84h-522z" />
<glyph unicode="&#xb0;" horiz-adv-x="739" d="M119 1182q0 104 74.5 177t177.5 73q107 0 179.5 -72.5t72.5 -177.5q0 -104 -73 -177t-179 -73t-179 73t-73 177zM190 1182q0 -76 52.5 -129.5t128.5 -53.5t128 52t52 131q0 77 -52.5 130.5t-127.5 53.5q-76 0 -128.5 -53.5t-52.5 -130.5z" />
<glyph unicode="&#xb1;" d="M63 0v76h842v-76h-842zM63 555v76h383v383h76v-383h381v-76h-381v-387h-76v387h-383z" />
<glyph unicode="&#xb2;" horiz-adv-x="630" d="M43 756v82q0 57 22 106.5t65.5 91.5t84.5 71.5t102 66.5q185 108 185 212q0 72 -57.5 109t-139.5 37q-113 0 -207 -68l-41 62q47 35 113 57.5t133 22.5q45 0 84.5 -7t76.5 -23t63.5 -40t42.5 -61.5t16 -83.5q0 -140 -201 -263q-256 -143 -256 -280v-21h457v-71h-543z" />
<glyph unicode="&#xb3;" horiz-adv-x="630" d="M18 829q2 5 24.5 32t23.5 28q76 -70 200 -70q87 0 146 46.5t59 123.5q0 76 -47 119t-115 43h-108v74h108q54 0 105 42t51 119q0 49 -30 83.5t-70.5 48.5t-83.5 14q-110 0 -201 -68l-43 60q121 80 252 80q49 0 94 -13t82.5 -38.5t59.5 -68.5t22 -98q0 -63 -35 -116.5 t-102 -77.5q76 -23 109.5 -77.5t33.5 -121.5q0 -112 -82 -180t-203 -68q-144 0 -250 84z" />
<glyph unicode="&#xb4;" horiz-adv-x="987" d="M422 1178l160 315l100 -39l-205 -301z" />
<glyph unicode="&#xb5;" horiz-adv-x="995" d="M100 1006h93v-650q0 -145 61.5 -211.5t179.5 -66.5q135 0 367 160v768h92v-1006h-84l-8 137q-132 -84 -218 -116.5t-159 -32.5q-160 0 -231 96v-500h-91q-2 473 -2 1422z" />
<glyph unicode="&#xb6;" horiz-adv-x="940" d="M84 1128q0 147 103 252t253 105h185v-713h-185q-154 0 -255 102.5t-101 253.5zM451 -158q45 5 82 14.5t64.5 19.5t48.5 27t34.5 30.5t23 37.5t14.5 40.5t7.5 46.5t3 48.5t0.5 53.5v1325h84v-1348q0 -93 -13 -153t-50.5 -109.5t-108 -77t-182.5 -39.5z" />
<glyph unicode="&#xb7;" horiz-adv-x="376" d="M104 551q0 37 27.5 62.5t65.5 25.5q36 0 63 -26t27 -62q0 -37 -26 -63.5t-64 -26.5t-65.5 26.5t-27.5 63.5z" />
<glyph unicode="&#xb8;" horiz-adv-x="847" d="M326 -367l20 54q71 -21 127 -21q52 0 89.5 20.5t37.5 69.5q0 50 -46 76t-103 16l-41 21q2 7 51 162q10 0 30 -1t29 -1l-39 -119q51 0 90.5 -15.5t60.5 -40.5t31.5 -50.5t10.5 -49.5q0 -54 -49.5 -100.5t-149.5 -46.5q-72 0 -149 26z" />
<glyph unicode="&#xb9;" horiz-adv-x="528" d="M80 1458l196 139h74v-841h-80v743l-143 -102z" />
<glyph unicode="&#xba;" horiz-adv-x="677" d="M59 811v186q0 107 81 175.5t200 68.5q121 0 198.5 -68t77.5 -176v-182q0 -114 -76 -184t-202 -70q-124 0 -201.5 70.5t-77.5 179.5zM139 827q0 -95 58 -143.5t143 -48.5t142 49.5t57 142.5v150q0 95 -59.5 143.5t-139.5 48.5q-82 0 -141.5 -48t-59.5 -144v-150z" />
<glyph unicode="&#xbb;" horiz-adv-x="833" d="M129 94l233 355l-233 352h90l242 -352l-240 -355h-92zM406 94l235 355l-235 352h90l241 -352l-239 -355h-92z" />
<glyph unicode="&#xbc;" horiz-adv-x="1556" d="M182 1274l197 139h74v-842h-80v744l-144 -103zM262 -35l868 1497h82l-870 -1497h-80zM803 133v64q38 78 315 645h86l-311 -637h317v260h76v-260h88v-72h-88v-133h-76v133h-407z" />
<glyph unicode="&#xbd;" horiz-adv-x="1556" d="M139 1274l197 139h74v-842h-80v744l-144 -103zM203 -35l868 1497h82l-870 -1497h-80zM874 0v82q0 46 16.5 88t40.5 74.5t63 66t73 56t82 51.5q184 108 184 213q0 73 -56.5 109t-139.5 36q-115 0 -207 -67l-41 61q47 35 113 57.5t133 22.5q56 0 104.5 -11.5t89.5 -35.5 t64.5 -67t23.5 -101q0 -139 -200 -262q-37 -21 -66.5 -39.5t-67 -47.5t-62.5 -56.5t-42.5 -63.5t-17.5 -72v-22h456v-72h-543z" />
<glyph unicode="&#xbe;" horiz-adv-x="1556" d="M90 645q2 4 12 16.5t21.5 27t13.5 16.5q76 -70 201 -70q87 0 146 46.5t59 123.5q0 76 -47 119t-115 43h-109v73h109q54 0 105 42.5t51 119.5q0 71 -57.5 108.5t-127.5 37.5q-109 0 -200 -68l-43 59q121 80 251 80q67 0 123.5 -21.5t95.5 -72.5t39 -123q0 -63 -35 -116.5 t-102 -77.5q76 -23 110 -78t34 -121q0 -112 -82 -180t-203 -68q-144 0 -250 84zM346 -35l868 1497h82l-870 -1497h-80zM893 133v64q38 78 315 645h86l-311 -637h317v260h76v-260h88v-72h-88v-133h-76v133h-407z" />
<glyph unicode="&#xbf;" horiz-adv-x="884" d="M94 -86q0 77 40 153t110 162q74 87 113.5 164.5t39.5 159.5v131h86v-131q0 -43 -9.5 -84.5t-19.5 -69t-36 -68t-38.5 -57t-46.5 -59.5q-9 -12 -14 -18q-43 -55 -64.5 -85.5t-45 -85.5t-23.5 -106q0 -115 76.5 -185.5t210.5 -70.5q157 0 285 84l45 -72q-153 -94 -342 -94 q-170 0 -268.5 93t-98.5 239zM356 938q0 34 22.5 56t57.5 22t56.5 -22t21.5 -56q0 -29 -22 -51.5t-56 -22.5q-33 0 -56.5 22.5t-23.5 51.5z" />
<glyph unicode="&#xc0;" horiz-adv-x="1163" d="M41 0l487 1411h111l491 -1411h-104q-46 133 -121 340h-645q-43 -133 -115 -340h-104zM293 430h581q-23 71 -144 430t-146 430h-2q-103 -318 -289 -860zM305 1683l72 76l278 -221l-41 -45z" />
<glyph unicode="&#xc1;" horiz-adv-x="1163" d="M41 0l487 1411h111l491 -1411h-104q-46 133 -121 340h-645q-43 -133 -115 -340h-104zM293 430h581q-23 71 -144 430t-146 430h-2q-103 -318 -289 -860zM512 1538l279 221l71 -76l-309 -190z" />
<glyph unicode="&#xc2;" horiz-adv-x="1163" d="M41 0l487 1411h111l491 -1411h-104q-46 133 -121 340h-645q-43 -133 -115 -340h-104zM285 1538l268 223h76l260 -221l-37 -43l-264 170l-266 -172zM293 430h581q-23 71 -144 430t-146 430h-2q-103 -318 -289 -860z" />
<glyph unicode="&#xc3;" horiz-adv-x="1163" d="M41 0l487 1411h111l491 -1411h-104q-46 133 -121 340h-645q-43 -133 -115 -340h-104zM274 1585q80 131 189 131q45 0 135.5 -43t122.5 -43t58 19.5t57 64.5l61 -35q-71 -133 -174 -133q-41 0 -130 41t-128 41q-37 0 -66 -19t-63 -61zM293 430h581q-23 71 -144 430 t-146 430h-2q-103 -318 -289 -860z" />
<glyph unicode="&#xc4;" horiz-adv-x="1163" d="M41 0l487 1411h111l491 -1411h-104q-46 133 -121 340h-645q-43 -133 -115 -340h-104zM293 430h581q-23 71 -144 430t-146 430h-2q-103 -318 -289 -860zM350 1608q0 26 19.5 45.5t44.5 19.5q28 0 47.5 -19.5t19.5 -45.5q0 -28 -19.5 -47t-47.5 -19q-25 0 -44.5 19.5 t-19.5 46.5zM694 1608q0 26 20 45.5t46 19.5q27 0 46 -19t19 -46q0 -28 -18.5 -47t-46.5 -19q-27 0 -46.5 19.5t-19.5 46.5z" />
<glyph unicode="&#xc5;" horiz-adv-x="1163" d="M41 0l487 1411h111l491 -1411h-104q-46 133 -121 340h-645q-43 -133 -115 -340h-104zM293 430h581q-23 71 -144 430t-146 430h-2q-103 -318 -289 -860zM395 1661q0 77 56 131.5t133 54.5q78 0 133 -54t55 -132q0 -77 -55 -131.5t-133 -54.5q-77 0 -133 55t-56 131z M455 1661q0 -54 37.5 -91.5t91.5 -37.5q55 0 92 37.5t37 91.5t-37 91.5t-92 37.5q-54 0 -91.5 -37.5t-37.5 -91.5z" />
<glyph unicode="&#xc6;" horiz-adv-x="1884" d="M2 0l897 1411h956v-90h-808v-561h694v-88h-694v-584h808v-88h-907v377h-596l-239 -377h-111zM408 463h540v854z" />
<glyph unicode="&#xc7;" horiz-adv-x="1028" d="M104 459v499q0 205 138 336t358 131q216 0 365 -104l-54 -80q-136 94 -311 94q-61 0 -117.5 -14t-108 -45t-89 -76t-60 -112t-22.5 -148v-465q0 -99 34 -178t90.5 -126.5t125 -72t141.5 -24.5q182 0 321 100l52 -76q-63 -47 -159 -79.5t-208 -32.5h-2l-25 -76 q51 0 90.5 -15.5t60.5 -40.5t31.5 -50.5t10.5 -49.5q0 -54 -49.5 -100.5t-149.5 -46.5q-72 0 -149 26l20 54q70 -21 127 -21q52 0 89.5 20.5t37.5 69.5q0 50 -46 76t-103 16l-41 21l37 121q-198 17 -316.5 145.5t-118.5 323.5z" />
<glyph unicode="&#xc8;" horiz-adv-x="1089" d="M117 0v1411h907v-90h-809v-561h696v-88h-696v-584h809v-88h-907zM317 1683l72 76l279 -221l-41 -45z" />
<glyph unicode="&#xc9;" horiz-adv-x="1089" d="M117 0v1411h907v-90h-809v-561h696v-88h-696v-584h809v-88h-907zM444 1538l279 221l72 -76l-310 -190z" />
<glyph unicode="&#xca;" horiz-adv-x="1089" d="M117 0v1411h907v-90h-809v-561h696v-88h-696v-584h809v-88h-907zM268 1538l269 223h75l260 -221l-36 -43l-265 170l-266 -172z" />
<glyph unicode="&#xcb;" horiz-adv-x="1089" d="M117 0v1411h907v-90h-809v-561h696v-88h-696v-584h809v-88h-907zM336 1606q0 27 19 46t46 19t46.5 -19t19.5 -46q0 -26 -20 -46t-46 -20t-45.5 20t-19.5 46zM682 1606q0 28 18.5 46.5t44.5 18.5q28 0 47 -18.5t19 -46.5q0 -27 -19.5 -46.5t-46.5 -19.5q-26 0 -44.5 19.5 t-18.5 46.5z" />
<glyph unicode="&#xcc;" horiz-adv-x="442" d="M-63 1683l71 76l279 -221l-41 -45zM172 0v1411h98v-1411h-98z" />
<glyph unicode="&#xcd;" horiz-adv-x="442" d="M154 1538l278 221l72 -76l-309 -190zM172 0v1411h98v-1411h-98z" />
<glyph unicode="&#xce;" horiz-adv-x="442" d="M-80 1538l268 223h76l260 -221l-37 -43l-264 170l-266 -172zM172 0v1411h98v-1411h-98z" />
<glyph unicode="&#xcf;" horiz-adv-x="442" d="M-14 1608q0 26 19 45.5t44 19.5q28 0 48 -19.5t20 -45.5q0 -28 -20 -47t-48 -19q-25 0 -44 19.5t-19 46.5zM172 0v1411h98v-1411h-98zM330 1608q0 26 19.5 45.5t45.5 19.5q27 0 46.5 -19.5t19.5 -45.5q0 -28 -19 -47t-47 -19q-27 0 -46 19t-19 47z" />
<glyph unicode="&#xd0;" horiz-adv-x="1189" d="M12 700v78h103v633h522q209 0 332 -127.5t123 -335.5v-491q0 -203 -127.5 -330t-333.5 -127h-516v700h-103zM213 86h391q73 0 139 21t123 65t91 122t34 181v457q0 102 -32 179.5t-85 122t-115 66t-130 21.5h-416v-543h342v-78h-342v-614z" />
<glyph unicode="&#xd1;" horiz-adv-x="1255" d="M115 0v1411h98l524 -790q231 -352 303 -455v1245h99v-1411h-105q-76 114 -249 376t-267 402q-23 35 -92 141t-117 178t-96 140v-1237h-98zM324 1579q80 131 188 131q45 0 135.5 -43t122.5 -43t58 19.5t57 64.5l61 -35q-71 -133 -174 -133q-42 0 -131 41t-127 41 q-37 0 -66 -19t-63 -61z" />
<glyph unicode="&#xd2;" horiz-adv-x="1202" d="M104 457v501q0 207 134.5 337t361.5 130q223 0 360.5 -131t137.5 -336v-507q0 -210 -136.5 -337.5t-361.5 -127.5q-226 0 -361 129.5t-135 341.5zM203 467q0 -99 34.5 -177t92 -123.5t126.5 -69t144 -23.5q84 0 155 24t126 71t86.5 123.5t31.5 174.5v473q0 98 -32.5 175 t-88.5 124t-126.5 71.5t-151.5 24.5q-84 0 -155 -24t-125.5 -71.5t-85.5 -124.5t-31 -175v-473zM338 1683l72 76l278 -221l-41 -45z" />
<glyph unicode="&#xd3;" horiz-adv-x="1202" d="M104 457v501q0 207 134.5 337t361.5 130q223 0 360.5 -131t137.5 -336v-507q0 -210 -136.5 -337.5t-361.5 -127.5q-226 0 -361 129.5t-135 341.5zM203 467q0 -99 34.5 -177t92 -123.5t126.5 -69t144 -23.5q84 0 155 24t126 71t86.5 123.5t31.5 174.5v473q0 98 -32.5 175 t-88.5 124t-126.5 71.5t-151.5 24.5q-84 0 -155 -24t-125.5 -71.5t-85.5 -124.5t-31 -175v-473zM514 1538l279 221l71 -76l-309 -190z" />
<glyph unicode="&#xd4;" horiz-adv-x="1202" d="M104 457v501q0 207 134.5 337t361.5 130q223 0 360.5 -131t137.5 -336v-507q0 -210 -136.5 -337.5t-361.5 -127.5q-226 0 -361 129.5t-135 341.5zM203 467q0 -99 34.5 -177t92 -123.5t126.5 -69t144 -23.5q84 0 155 24t126 71t86.5 123.5t31.5 174.5v473q0 98 -32.5 175 t-88.5 124t-126.5 71.5t-151.5 24.5q-84 0 -155 -24t-125.5 -71.5t-85.5 -124.5t-31 -175v-473zM301 1538l268 223h76l260 -221l-37 -43l-264 170l-266 -172z" />
<glyph unicode="&#xd5;" horiz-adv-x="1202" d="M104 457v501q0 207 134.5 337t361.5 130q223 0 360.5 -131t137.5 -336v-507q0 -210 -136.5 -337.5t-361.5 -127.5q-226 0 -361 129.5t-135 341.5zM203 467q0 -99 34.5 -177t92 -123.5t126.5 -69t144 -23.5q84 0 155 24t126 71t86.5 123.5t31.5 174.5v473q0 98 -32.5 175 t-88.5 124t-126.5 71.5t-151.5 24.5q-84 0 -155 -24t-125.5 -71.5t-85.5 -124.5t-31 -175v-473zM299 1563q80 131 188 131q45 0 135.5 -43t122.5 -43t58 19.5t57 64.5l62 -35q-71 -133 -174 -133q-42 0 -131 41t-128 41q-37 0 -66 -19t-63 -61z" />
<glyph unicode="&#xd6;" horiz-adv-x="1202" d="M104 457v501q0 207 134.5 337t361.5 130q223 0 360.5 -131t137.5 -336v-507q0 -210 -136.5 -337.5t-361.5 -127.5q-226 0 -361 129.5t-135 341.5zM203 467q0 -99 34.5 -177t92 -123.5t126.5 -69t144 -23.5q84 0 155 24t126 71t86.5 123.5t31.5 174.5v473q0 98 -32.5 175 t-88.5 124t-126.5 71.5t-151.5 24.5q-84 0 -155 -24t-125.5 -71.5t-85.5 -124.5t-31 -175v-473zM371 1608q0 26 19 45.5t44 19.5q28 0 48 -19.5t20 -45.5q0 -28 -20 -47t-48 -19q-25 0 -44 19.5t-19 46.5zM715 1608q0 26 19.5 45.5t45.5 19.5q28 0 47 -19.5t19 -45.5 q0 -28 -19 -47t-47 -19q-26 0 -45.5 19t-19.5 47z" />
<glyph unicode="&#xd7;" d="M104 229l330 330l-321 322l53 53l321 -322l326 326l51 -53l-325 -326l323 -323l-53 -54l-324 322l-327 -328z" />
<glyph unicode="&#xd8;" horiz-adv-x="1202" d="M102 20l95 142q-93 123 -93 295v501q0 207 134.5 337t361.5 130q217 0 356 -129l88 129l56 -36l-96 -144q94 -120 94 -287v-507q0 -210 -136.5 -337.5t-361.5 -127.5q-222 0 -356 125l-86 -127zM203 467q0 -127 53 -215l647 962q-112 121 -303 121q-84 0 -155 -24 t-125.5 -71.5t-85.5 -124.5t-31 -175v-473zM299 195q112 -121 301 -121q84 0 155 24t126 71t86.5 123.5t31.5 174.5v473q0 127 -55 217z" />
<glyph unicode="&#xd9;" horiz-adv-x="1208" d="M106 451v960h101v-944q0 -100 33 -177t89.5 -122.5t126 -68.5t148.5 -23q81 0 151 23t127 68.5t89.5 122.5t32.5 177v944h100v-962q0 -209 -140 -336t-360 -127q-221 0 -359.5 128t-138.5 337zM356 1683l72 76l279 -221l-41 -45z" />
<glyph unicode="&#xda;" horiz-adv-x="1208" d="M106 451v960h101v-944q0 -100 33 -177t89.5 -122.5t126 -68.5t148.5 -23q81 0 151 23t127 68.5t89.5 122.5t32.5 177v944h100v-962q0 -209 -140 -336t-360 -127q-221 0 -359.5 128t-138.5 337zM498 1538l278 221l72 -76l-309 -190z" />
<glyph unicode="&#xdb;" horiz-adv-x="1208" d="M106 451v960h101v-944q0 -100 33 -177t89.5 -122.5t126 -68.5t148.5 -23q81 0 151 23t127 68.5t89.5 122.5t32.5 177v944h100v-962q0 -209 -140 -336t-360 -127q-221 0 -359.5 128t-138.5 337zM301 1538l268 223h76l260 -221l-37 -43l-264 170l-266 -172z" />
<glyph unicode="&#xdc;" horiz-adv-x="1208" d="M106 451v960h101v-944q0 -100 33 -177t89.5 -122.5t126 -68.5t148.5 -23q81 0 151 23t127 68.5t89.5 122.5t32.5 177v944h100v-962q0 -209 -140 -336t-360 -127q-221 0 -359.5 128t-138.5 337zM375 1608q0 26 19 45.5t44 19.5q28 0 48 -19.5t20 -45.5q0 -28 -20 -47 t-48 -19q-25 0 -44 19.5t-19 46.5zM719 1608q0 26 19.5 45.5t45.5 19.5q28 0 47 -19.5t19 -45.5q0 -28 -19 -47t-47 -19q-26 0 -45.5 19t-19.5 47z" />
<glyph unicode="&#xdd;" horiz-adv-x="1003" d="M25 1411h108l160 -332l153 -327q40 -74 58 -111l207 442l157 328h105q-115 -242 -422 -876v-535h-98v530q-82 172 -237.5 490.5t-190.5 390.5zM369 1538l278 221l72 -76l-309 -190z" />
<glyph unicode="&#xde;" horiz-adv-x="1103" d="M113 0v1411h98v-276h455q95 0 171.5 -35.5t123.5 -94t71.5 -129.5t24.5 -147q0 -74 -26.5 -144.5t-74.5 -127.5t-124 -92t-166 -35h-457v-330h-96zM209 420h438q131 0 220 83.5t89 225.5q0 141 -89.5 227t-219.5 86h-438v-622z" />
<glyph unicode="&#xdf;" horiz-adv-x="980" d="M102 0v1081q0 169 104 273t267 104q81 0 145.5 -21.5t104.5 -55.5t67 -79.5t37.5 -89.5t10.5 -88q0 -32 -6.5 -66.5t-22 -75.5t-49 -77.5t-80.5 -58.5q59 -16 102.5 -52.5t66 -83.5t32.5 -94t10 -96v-182q0 -167 -92.5 -258.5t-255.5 -91.5q-53 0 -84 4v78h76 q141 0 203.5 75t62.5 217v158q0 129 -70 197.5t-199 68.5h-36v82h24q58 0 104 24.5t72 63.5t39 80.5t13 81.5q0 46 -15.5 90t-46.5 83.5t-86 63t-127 23.5q-74 0 -130.5 -28t-87.5 -74t-46.5 -96.5t-15.5 -102.5v-1077h-91z" />
<glyph unicode="&#xe0;" horiz-adv-x="954" d="M66 272q0 61 21.5 111.5t55.5 82.5t79 54t90 31.5t91 9.5h365v101q0 270 -285 270q-168 0 -301 -94l-49 73q156 105 356 105q198 0 283.5 -87.5t85.5 -252.5v-676h-74l-16 125h-2q-132 -83 -221 -110t-164 -27q-143 0 -229 74t-86 210zM162 272q0 -101 64.5 -151.5 t166.5 -50.5q139 0 375 143v268h-330q-276 0 -276 -209zM307 1454l99 39l161 -315l-57 -25z" />
<glyph unicode="&#xe1;" horiz-adv-x="954" d="M66 272q0 61 21.5 111.5t55.5 82.5t79 54t90 31.5t91 9.5h365v101q0 270 -285 270q-168 0 -301 -94l-49 73q156 105 356 105q198 0 283.5 -87.5t85.5 -252.5v-676h-74l-16 125h-2q-132 -83 -221 -110t-164 -27q-143 0 -229 74t-86 210zM162 272q0 -101 64.5 -151.5 t166.5 -50.5q139 0 375 143v268h-330q-276 0 -276 -209zM455 1178l159 315l101 -39l-205 -301z" />
<glyph unicode="&#xe2;" horiz-adv-x="954" d="M66 272q0 61 21.5 111.5t55.5 82.5t79 54t90 31.5t91 9.5h365v101q0 270 -285 270q-168 0 -301 -94l-49 73q156 105 356 105q198 0 283.5 -87.5t85.5 -252.5v-676h-74l-16 125h-2q-132 -83 -221 -110t-164 -27q-143 0 -229 74t-86 210zM162 272q0 -101 64.5 -151.5 t166.5 -50.5q139 0 375 143v268h-330q-276 0 -276 -209zM193 1182l270 254h76l258 -252l-43 -43l-258 198l-260 -200z" />
<glyph unicode="&#xe3;" horiz-adv-x="954" d="M66 272q0 61 21.5 111.5t55.5 82.5t79 54t90 31.5t91 9.5h365v101q0 270 -285 270q-168 0 -301 -94l-49 73q156 105 356 105q198 0 283.5 -87.5t85.5 -252.5v-676h-74l-16 125h-2q-132 -83 -221 -110t-164 -27q-143 0 -229 74t-86 210zM162 272q0 -101 64.5 -151.5 t166.5 -50.5q139 0 375 143v268h-330q-276 0 -276 -209zM193 1270q80 131 188 131q45 0 135.5 -43t122.5 -43t58 19.5t57 64.5l61 -35q-71 -133 -174 -133q-41 0 -130 41t-128 41q-37 0 -66 -19t-63 -61z" />
<glyph unicode="&#xe4;" horiz-adv-x="954" d="M66 272q0 61 21.5 111.5t55.5 82.5t79 54t90 31.5t91 9.5h365v101q0 270 -285 270q-168 0 -301 -94l-49 73q156 105 356 105q198 0 283.5 -87.5t85.5 -252.5v-676h-74l-16 125h-2q-132 -83 -221 -110t-164 -27q-143 0 -229 74t-86 210zM162 272q0 -101 64.5 -151.5 t166.5 -50.5q139 0 375 143v268h-330q-276 0 -276 -209zM272 1331q0 27 19.5 46.5t44.5 19.5q28 0 47.5 -19t19.5 -47q0 -26 -19.5 -45.5t-47.5 -19.5q-25 0 -44.5 19.5t-19.5 45.5zM616 1331q0 27 19.5 46.5t46.5 19.5q28 0 47 -19t19 -47q0 -27 -19 -46t-47 -19 q-26 0 -46 19.5t-20 45.5z" />
<glyph unicode="&#xe5;" horiz-adv-x="954" d="M66 272q0 61 21.5 111.5t55.5 82.5t79 54t90 31.5t91 9.5h365v101q0 270 -285 270q-168 0 -301 -94l-49 73q156 105 356 105q198 0 283.5 -87.5t85.5 -252.5v-676h-74l-16 125h-2q-132 -83 -221 -110t-164 -27q-143 0 -229 74t-86 210zM162 272q0 -101 64.5 -151.5 t166.5 -50.5q139 0 375 143v268h-330q-276 0 -276 -209zM324 1317q0 77 55.5 131.5t132.5 54.5q78 0 133 -54t55 -132q0 -77 -55 -132t-133 -55q-77 0 -132.5 55.5t-55.5 131.5zM383 1317q0 -54 37.5 -91.5t91.5 -37.5q55 0 92 37.5t37 91.5t-37 91.5t-92 37.5 q-54 0 -91.5 -37.5t-37.5 -91.5z" />
<glyph unicode="&#xe6;" horiz-adv-x="1622" d="M66 272q0 76 32 132t84.5 86t108.5 43.5t115 13.5h362v115q0 146 -75 208t-212 62q-163 0 -299 -94l-49 73q156 105 352 105q263 0 336 -178q50 84 138 131t202 47q169 0 275 -98.5t106 -262.5v-186h-682v-113q0 -77 26 -134.5t70.5 -90t98 -48t114.5 -15.5 q161 0 273 106l57 -63q-126 -123 -334 -123q-237 0 -350 170q-154 -104 -253.5 -137t-180.5 -33q-143 0 -229 74t-86 210zM162 272q0 -100 65.5 -151t167.5 -51q80 0 186 45t201 106q-14 65 -14 144v104h-332q-41 0 -70.5 -2t-71 -13t-67.5 -31t-45.5 -58.5t-19.5 -92.5z M860 547h588v82q0 80 -24.5 140.5t-66.5 95.5t-91.5 52t-104.5 17q-57 0 -109.5 -18.5t-96 -54t-69.5 -96.5t-26 -138v-80z" />
<glyph unicode="&#xe7;" horiz-adv-x="839" d="M100 354v303q0 162 109 262.5t280 100.5q197 0 306 -96l-58 -74q-104 84 -239 84q-60 0 -112 -17t-96 -51t-69.5 -94t-25.5 -139v-256q0 -78 25.5 -137.5t69 -94t96 -52t110.5 -17.5q56 0 125.5 19.5t115.5 54.5l56 -70q-115 -86 -297 -90q-4 -12 -13.5 -38t-13.5 -42 q51 0 90.5 -15.5t60.5 -40.5t31.5 -50.5t10.5 -49.5q0 -54 -49.5 -100.5t-149.5 -46.5q-73 0 -150 26l21 54q71 -21 127 -21q52 0 89.5 20.5t37.5 69.5q0 50 -46.5 76t-103.5 16l-41 21l39 123q-155 15 -245.5 114t-90.5 248z" />
<glyph unicode="&#xe8;" horiz-adv-x="954" d="M100 354v285q0 170 110.5 274.5t283.5 104.5q167 0 273.5 -104.5t106.5 -270.5v-178h-681v-94q0 -81 25.5 -141t70 -94.5t98 -51t115.5 -16.5q158 0 272 108l57 -65q-123 -123 -333 -123q-177 0 -287.5 95.5t-110.5 270.5zM193 545h589v86q0 79 -25 139.5t-66.5 95 t-91.5 51.5t-105 17q-57 0 -109.5 -18t-96 -53.5t-69.5 -96t-26 -137.5v-84zM301 1454l98 39l162 -315l-57 -25z" />
<glyph unicode="&#xe9;" horiz-adv-x="954" d="M100 354v285q0 170 110.5 274.5t283.5 104.5q167 0 273.5 -104.5t106.5 -270.5v-178h-681v-94q0 -81 25.5 -141t70 -94.5t98 -51t115.5 -16.5q158 0 272 108l57 -65q-123 -123 -333 -123q-177 0 -287.5 95.5t-110.5 270.5zM193 545h589v86q0 79 -25 139.5t-66.5 95 t-91.5 51.5t-105 17q-57 0 -109.5 -18t-96 -53.5t-69.5 -96t-26 -137.5v-84zM426 1178l160 315l100 -39l-205 -301z" />
<glyph unicode="&#xea;" horiz-adv-x="954" d="M100 354v285q0 170 110.5 274.5t283.5 104.5q167 0 273.5 -104.5t106.5 -270.5v-178h-681v-94q0 -81 25.5 -141t70 -94.5t98 -51t115.5 -16.5q158 0 272 108l57 -65q-123 -123 -333 -123q-177 0 -287.5 95.5t-110.5 270.5zM178 1182l271 254h75l258 -252l-43 -43 l-258 198l-260 -200zM193 545h589v86q0 79 -25 139.5t-66.5 95t-91.5 51.5t-105 17q-57 0 -109.5 -18t-96 -53.5t-69.5 -96t-26 -137.5v-84z" />
<glyph unicode="&#xeb;" horiz-adv-x="954" d="M100 354v285q0 170 110.5 274.5t283.5 104.5q167 0 273.5 -104.5t106.5 -270.5v-178h-681v-94q0 -81 25.5 -141t70 -94.5t98 -51t115.5 -16.5q158 0 272 108l57 -65q-123 -123 -333 -123q-177 0 -287.5 95.5t-110.5 270.5zM193 545h589v86q0 79 -25 139.5t-66.5 95 t-91.5 51.5t-105 17q-57 0 -109.5 -18t-96 -53.5t-69.5 -96t-26 -137.5v-84zM262 1331q0 27 19.5 46.5t44.5 19.5q28 0 47.5 -19t19.5 -47q0 -26 -19.5 -45.5t-47.5 -19.5q-25 0 -44.5 19.5t-19.5 45.5zM606 1331q0 27 19.5 46.5t46.5 19.5q28 0 46.5 -19t18.5 -47 q0 -27 -19 -46t-46 -19q-26 0 -46 19.5t-20 45.5z" />
<glyph unicode="&#xec;" horiz-adv-x="419" d="M-16 1454l98 39l162 -315l-58 -25zM164 0v1006h90v-1006h-90z" />
<glyph unicode="&#xed;" horiz-adv-x="419" d="M162 1178l160 315l100 -39l-205 -301zM164 0v1006h90v-1006h-90z" />
<glyph unicode="&#xee;" horiz-adv-x="563" d="M-20 1182l270 254h76l258 -252l-43 -43l-258 198l-260 -200zM238 0v1006h90v-1006h-90z" />
<glyph unicode="&#xef;" horiz-adv-x="434" d="M-20 1331q0 27 19 46.5t44 19.5q28 0 48 -19t20 -47q0 -26 -20 -45.5t-48 -19.5q-25 0 -44 19.5t-19 45.5zM172 0v1006h90v-1006h-90zM324 1331q0 27 19 46.5t46 19.5q28 0 47 -19t19 -47q0 -27 -19.5 -46t-46.5 -19q-26 0 -45.5 19.5t-19.5 45.5z" />
<glyph unicode="&#xf0;" horiz-adv-x="980" d="M125 350v252q0 163 111.5 268t283.5 105q99 0 182 -37.5t127 -110.5q-6 136 -19.5 226t-49.5 147q-126 -88 -160 -113l-35 52l158 112q-93 134 -315 156q4 19 14 80q257 -18 375 -184l157 112l37 -53l-157 -111q54 -96 69 -216.5t15 -323.5v-346q0 -173 -105.5 -275 t-294.5 -102q-177 0 -285 99t-108 263zM217 373q0 -79 24.5 -139t68 -95t97 -52t117.5 -17q134 0 218.5 75t84.5 228v215q0 79 -25 139t-68.5 94t-95.5 51t-112 17q-61 0 -114.5 -17.5t-98 -52.5t-70.5 -95.5t-26 -139.5v-211z" />
<glyph unicode="&#xf1;" horiz-adv-x="983" d="M98 0v1006h76l16 -140q138 85 225.5 118.5t159.5 33.5q151 0 232.5 -86.5t81.5 -257.5v-674h-92v651q0 145 -61 212t-179 65q-136 0 -367 -156v-772h-92zM156 1270q80 131 188 131q45 0 135.5 -43t122.5 -43t58 19.5t57 64.5l61 -35q-71 -133 -174 -133q-42 0 -130.5 41 t-127.5 41q-37 0 -66 -19t-63 -61z" />
<glyph unicode="&#xf2;" horiz-adv-x="980" d="M94 352v307q0 160 115.5 259.5t282.5 99.5q172 0 283.5 -98.5t111.5 -260.5v-305q0 -169 -108.5 -267.5t-289.5 -98.5q-178 0 -286.5 99.5t-108.5 264.5zM186 375q0 -80 25 -140t68.5 -95t97.5 -51.5t117 -16.5q132 0 217.5 75.5t85.5 227.5v256q0 79 -27 139t-71.5 94 t-96.5 51t-108 17q-58 0 -110.5 -17t-98 -51t-72.5 -94t-27 -139v-256zM309 1454l99 39l161 -315l-57 -25z" />
<glyph unicode="&#xf3;" horiz-adv-x="980" d="M94 352v307q0 160 115.5 259.5t282.5 99.5q172 0 283.5 -98.5t111.5 -260.5v-305q0 -169 -108.5 -267.5t-289.5 -98.5q-178 0 -286.5 99.5t-108.5 264.5zM186 375q0 -80 25 -140t68.5 -95t97.5 -51.5t117 -16.5q132 0 217.5 75.5t85.5 227.5v256q0 79 -27 139t-71.5 94 t-96.5 51t-108 17q-58 0 -110.5 -17t-98 -51t-72.5 -94t-27 -139v-256zM428 1178l160 315l100 -39l-205 -301z" />
<glyph unicode="&#xf4;" horiz-adv-x="980" d="M94 352v307q0 160 115.5 259.5t282.5 99.5q172 0 283.5 -98.5t111.5 -260.5v-305q0 -169 -108.5 -267.5t-289.5 -98.5q-178 0 -286.5 99.5t-108.5 264.5zM186 375q0 -80 25 -140t68.5 -95t97.5 -51.5t117 -16.5q132 0 217.5 75.5t85.5 227.5v256q0 79 -27 139t-71.5 94 t-96.5 51t-108 17q-58 0 -110.5 -17t-98 -51t-72.5 -94t-27 -139v-256zM195 1182l270 254h76l258 -252l-43 -43l-258 198l-260 -200z" />
<glyph unicode="&#xf5;" horiz-adv-x="980" d="M94 352v307q0 160 115.5 259.5t282.5 99.5q172 0 283.5 -98.5t111.5 -260.5v-305q0 -169 -108.5 -267.5t-289.5 -98.5q-178 0 -286.5 99.5t-108.5 264.5zM186 375q0 -80 25 -140t68.5 -95t97.5 -51.5t117 -16.5q132 0 217.5 75.5t85.5 227.5v256q0 79 -27 139t-71.5 94 t-96.5 51t-108 17q-58 0 -110.5 -17t-98 -51t-72.5 -94t-27 -139v-256zM190 1270q80 131 189 131q45 0 135.5 -43t122.5 -43t58 19.5t57 64.5l61 -35q-71 -133 -174 -133q-41 0 -130 41t-128 41q-37 0 -66 -19t-63 -61z" />
<glyph unicode="&#xf6;" horiz-adv-x="980" d="M94 352v307q0 160 115.5 259.5t282.5 99.5q172 0 283.5 -98.5t111.5 -260.5v-305q0 -169 -108.5 -267.5t-289.5 -98.5q-178 0 -286.5 99.5t-108.5 264.5zM186 375q0 -80 25 -140t68.5 -95t97.5 -51.5t117 -16.5q132 0 217.5 75.5t85.5 227.5v256q0 79 -27 139t-71.5 94 t-96.5 51t-108 17q-58 0 -110.5 -17t-98 -51t-72.5 -94t-27 -139v-256zM256 1331q0 27 19 46.5t44 19.5q28 0 48 -19t20 -47q0 -26 -20 -45.5t-48 -19.5q-25 0 -44 19.5t-19 45.5zM600 1331q0 27 19.5 46.5t46.5 19.5q28 0 46.5 -19t18.5 -47q0 -27 -19 -46t-46 -19 q-26 0 -46 19.5t-20 45.5z" />
<glyph unicode="&#xf7;" d="M57 535v75h852v-75h-852zM410 225q0 33 24.5 54.5t57.5 21.5q31 0 53 -21t22 -55q0 -32 -23 -55t-55 -23q-33 0 -56 22.5t-23 55.5zM410 918q0 34 23 54.5t56 20.5q32 0 55 -20.5t23 -54.5q0 -32 -23 -56t-55 -24q-33 0 -56 23.5t-23 56.5z" />
<glyph unicode="&#xf8;" horiz-adv-x="980" d="M94 23l76 100q-76 92 -76 229v307q0 160 115.5 259.5t282.5 99.5q164 0 276 -94l70 92l49 -35l-76 -100q76 -95 76 -222v-305q0 -169 -108.5 -267.5t-289.5 -98.5q-169 0 -276 90l-70 -92zM186 375q0 -106 41 -174l486 649q-85 82 -219 82q-58 0 -110.5 -17t-98 -51 t-72.5 -94t-27 -139v-256zM266 152q80 -80 228 -80q132 0 217.5 75.5t85.5 227.5v256q0 103 -45 170z" />
<glyph unicode="&#xf9;" horiz-adv-x="987" d="M94 332v674h92v-652q0 -278 240 -278q141 0 367 160v770h94v-1006h-78l-16 139q-137 -85 -220.5 -118t-154.5 -33q-157 0 -240.5 86.5t-83.5 257.5zM307 1454l99 39l161 -315l-57 -25z" />
<glyph unicode="&#xfa;" horiz-adv-x="987" d="M94 332v674h92v-652q0 -278 240 -278q141 0 367 160v770h94v-1006h-78l-16 139q-137 -85 -220.5 -118t-154.5 -33q-157 0 -240.5 86.5t-83.5 257.5zM446 1178l160 315l101 -39l-205 -301z" />
<glyph unicode="&#xfb;" horiz-adv-x="987" d="M94 332v674h92v-652q0 -278 240 -278q141 0 367 160v770h94v-1006h-78l-16 139q-137 -85 -220.5 -118t-154.5 -33q-157 0 -240.5 86.5t-83.5 257.5zM193 1182l270 254h76l258 -252l-43 -43l-258 198l-260 -200z" />
<glyph unicode="&#xfc;" horiz-adv-x="987" d="M94 332v674h92v-652q0 -278 240 -278q141 0 367 160v770h94v-1006h-78l-16 139q-137 -85 -220.5 -118t-154.5 -33q-157 0 -240.5 86.5t-83.5 257.5zM254 1331q0 27 19 46.5t44 19.5q28 0 48 -19t20 -47q0 -26 -20 -45.5t-48 -19.5q-25 0 -44 19.5t-19 45.5zM598 1331 q0 27 19.5 46.5t46.5 19.5q28 0 46.5 -19t18.5 -47q0 -27 -19 -46t-46 -19q-26 0 -46 19.5t-20 45.5z" />
<glyph unicode="&#xfd;" horiz-adv-x="876" d="M14 1004h97q32 -89 85 -253.5t70 -215.5l154 -455h2l166 455q16 45 77 212t93 257h96q-98 -267 -277.5 -755.5t-240.5 -654.5h-98l147 410l-57 59zM367 1178l159 315l101 -39l-205 -301z" />
<glyph unicode="&#xfe;" horiz-adv-x="978" d="M100 -416v1827h90v-541q229 148 381 148q150 0 234 -86.5t84 -255.5v-340q0 -168 -92.5 -259t-259.5 -91q-159 0 -347 94v-496h-90zM190 174q201 -102 338 -102q271 0 271 284v297q0 277 -232 277q-68 0 -171 -43t-206 -113v-600z" />
<glyph unicode="&#xff;" horiz-adv-x="876" d="M14 1004h97q32 -89 85 -253.5t70 -215.5l154 -455h2l166 455q16 45 77 212t93 257h96q-98 -267 -277.5 -755.5t-240.5 -654.5h-98l147 410l-57 59zM197 1331q0 27 19 46.5t44 19.5q28 0 48 -19t20 -47q0 -26 -20 -45.5t-48 -19.5q-25 0 -44 19.5t-19 45.5zM541 1331 q0 27 19.5 46.5t45.5 19.5q28 0 47 -19t19 -47q0 -27 -19 -46t-47 -19q-26 0 -45.5 19.5t-19.5 45.5z" />
<glyph unicode="&#x152;" horiz-adv-x="1718" d="M104 457v501q0 207 134.5 337t361.5 130q66 0 145 -14h908v-90h-809v-561h694v-88h-694v-584h809v-88h-908q-79 -14 -145 -14q-226 0 -361 129.5t-135 341.5zM203 467q0 -99 34.5 -177t92 -123.5t126.5 -69t144 -23.5q87 0 145 18v1223q-67 20 -145 20q-84 0 -155 -24 t-125.5 -71.5t-85.5 -124.5t-31 -175v-473z" />
<glyph unicode="&#x153;" horiz-adv-x="1648" d="M94 352v307q0 160 115.5 259.5t282.5 99.5q120 0 213 -51t139 -142q46 90 136.5 141.5t207.5 51.5q170 0 275.5 -99t105.5 -264v-190h-680v-94q0 -81 25.5 -141t69.5 -94.5t97 -51t115 -16.5q161 0 272 108l60 -65q-126 -123 -336 -123q-123 0 -215 47.5t-137 138.5 q-44 -90 -134.5 -138t-216.5 -48q-178 0 -286.5 99.5t-108.5 264.5zM186 375q0 -80 25 -140t68.5 -95t97.5 -51.5t117 -16.5q79 0 145.5 28.5t110.5 91.5t45 150v305q0 71 -27.5 128t-72 90t-96 50t-105.5 17q-58 0 -110.5 -17t-98 -51t-72.5 -94t-27 -139v-256zM889 545 h588v86q0 79 -24.5 139t-66.5 95t-92 52t-106 17q-57 0 -109 -18t-95.5 -53.5t-69 -96t-25.5 -137.5v-84z" />
<glyph unicode="&#x178;" horiz-adv-x="1003" d="M25 1411h108l160 -332l153 -327q40 -74 58 -111l207 442l157 328h105q-115 -242 -422 -876v-535h-98v530q-82 172 -237.5 490.5t-190.5 390.5zM266 1608q0 26 19.5 45.5t44.5 19.5q28 0 47.5 -19.5t19.5 -45.5q0 -28 -19.5 -47t-47.5 -19q-25 0 -44.5 19.5t-19.5 46.5z M610 1608q0 26 20 45.5t46 19.5q27 0 46 -19t19 -46q0 -28 -18.5 -47t-46.5 -19q-27 0 -46.5 19.5t-19.5 46.5z" />
<glyph unicode="&#x2c6;" horiz-adv-x="987" d="M193 1182l270 254h76l258 -252l-43 -43l-258 198l-260 -200z" />
<glyph unicode="&#x2dc;" horiz-adv-x="987" d="M193 1270q80 131 188 131q45 0 135.5 -43t122.5 -43t58 19.5t57 64.5l61 -35q-71 -133 -174 -133q-41 0 -130 41t-128 41q-37 0 -66 -19t-63 -61z" />
<glyph unicode="&#x2000;" horiz-adv-x="923" />
<glyph unicode="&#x2001;" horiz-adv-x="1847" />
<glyph unicode="&#x2002;" horiz-adv-x="923" />
<glyph unicode="&#x2003;" horiz-adv-x="1847" />
<glyph unicode="&#x2004;" horiz-adv-x="615" />
<glyph unicode="&#x2005;" horiz-adv-x="461" />
<glyph unicode="&#x2006;" horiz-adv-x="307" />
<glyph unicode="&#x2007;" horiz-adv-x="307" />
<glyph unicode="&#x2008;" horiz-adv-x="230" />
<glyph unicode="&#x2009;" horiz-adv-x="369" />
<glyph unicode="&#x200a;" horiz-adv-x="102" />
<glyph unicode="&#x2010;" horiz-adv-x="757" d="M109 502v88h540v-88h-540z" />
<glyph unicode="&#x2011;" horiz-adv-x="757" d="M109 502v88h540v-88h-540z" />
<glyph unicode="&#x2012;" horiz-adv-x="757" d="M109 502v88h540v-88h-540z" />
<glyph unicode="&#x2013;" horiz-adv-x="1009" d="M41 498v88h928v-88h-928z" />
<glyph unicode="&#x2014;" horiz-adv-x="2033" d="M41 498v88h1952v-88h-1952z" />
<glyph unicode="&#x2018;" horiz-adv-x="454" d="M147 1227q0 68 42.5 131.5t103.5 95.5l33 -41q-81 -60 -84 -147h8q34 0 55 -20.5t21 -55.5q0 -34 -24 -56t-60 -22q-43 0 -69 32t-26 83z" />
<glyph unicode="&#x2019;" horiz-adv-x="454" d="M156 1155q79 60 82 148q-36 -2 -59 18.5t-23 56.5q0 34 23.5 56t58.5 22q44 0 69 -31.5t25 -83.5q0 -68 -42.5 -131.5t-103.5 -95.5z" />
<glyph unicode="&#x201a;" horiz-adv-x="409" d="M123 68q0 32 24.5 53.5t59.5 21.5q42 0 67 -31t25 -81q0 -69 -41 -134t-102 -96l-33 41q81 60 84 148q-40 -2 -62 18.5t-22 59.5z" />
<glyph unicode="&#x201c;" horiz-adv-x="684" d="M135 1227q0 68 42 132t104 95l30 -41q-79 -60 -82 -147h9q33 0 53 -20.5t20 -55.5q0 -34 -23.5 -56t-58.5 -22q-44 0 -69 31.5t-25 83.5zM385 1227q0 68 41.5 132t103.5 95q21 -29 31 -41q-79 -58 -82 -147h8q33 0 53.5 -20.5t20.5 -55.5q0 -34 -23.5 -56t-58.5 -22 q-44 0 -69 31.5t-25 83.5z" />
<glyph unicode="&#x201d;" horiz-adv-x="684" d="M143 1155q79 60 82 148q-36 -2 -59 18.5t-23 56.5q0 34 23.5 56t58.5 22q44 0 69 -31.5t25 -83.5q0 -68 -41.5 -132t-103.5 -95zM393 1155q79 60 82 148q-36 -2 -59 18.5t-23 56.5q0 34 23.5 56t58.5 22q44 0 69 -31.5t25 -83.5q0 -68 -42 -132t-103 -95z" />
<glyph unicode="&#x201e;" horiz-adv-x="698" d="M127 68q0 32 24.5 53.5t59.5 21.5q42 0 67 -31t25 -81q0 -69 -41 -134t-102 -96l-33 41q81 60 84 148q-40 -2 -62 18.5t-22 59.5zM410 68q0 32 24.5 53.5t59.5 21.5q44 0 69 -31t25 -81q0 -69 -42 -133.5t-104 -96.5l-30 41q79 60 82 148q-39 -2 -61.5 18.5t-22.5 59.5z " />
<glyph unicode="&#x2022;" horiz-adv-x="724" d="M180 563q0 79 55.5 135t133.5 56q77 0 131.5 -56t54.5 -135q0 -78 -54.5 -133t-131.5 -55q-78 0 -133.5 55.5t-55.5 132.5z" />
<glyph unicode="&#x2026;" horiz-adv-x="1312" d="M119 74q0 31 22.5 53.5t57.5 22.5t59.5 -23t24.5 -53q0 -35 -23.5 -59.5t-58.5 -24.5q-38 0 -60 23.5t-22 60.5zM575 74q0 30 23 53t59 23q35 0 59.5 -23t24.5 -53q0 -35 -23.5 -59.5t-58.5 -24.5q-38 0 -61 23.5t-23 60.5zM1040 74q0 30 23 53t59 23q35 0 59.5 -23 t24.5 -53q0 -36 -23 -60t-59 -24q-37 0 -60.5 23.5t-23.5 60.5z" />
<glyph unicode="&#x202f;" horiz-adv-x="369" />
<glyph unicode="&#x2039;" horiz-adv-x="565" d="M129 449l242 352h90l-234 -352l234 -355h-92z" />
<glyph unicode="&#x203a;" horiz-adv-x="565" d="M129 94l233 355l-233 352h90l242 -352l-240 -355h-92z" />
<glyph unicode="&#x205f;" horiz-adv-x="461" />
<glyph unicode="&#x20ac;" d="M33 578v71h809v-71h-600v-103q0 -100 33 -178.5t89 -125.5t124.5 -71t144.5 -24q158 0 278 69l43 -77q-138 -82 -317 -82q-230 0 -362 132.5t-132 344.5v115h-110zM33 782v74h110v100q0 206 136 337.5t358 131.5q186 0 319 -75l-45 -82q-128 67 -274 67q-79 0 -148.5 -23 t-125.5 -69t-88.5 -124t-32.5 -179v-84h600v-74h-809z" />
<glyph unicode="&#x2122;" horiz-adv-x="1654" d="M76 1354v71h590v-71h-258v-748h-72v748h-260zM776 606v817h80l295 -620l293 620h76v-817h-70v684l-276 -583h-48l-280 583v-684h-70z" />
<glyph unicode="&#x25fc;" horiz-adv-x="1003" d="M0 0v1004h1004v-1004h-1004z" />
</font>
</defs>
</svg>
