<?xml version="1.0" standalone="no"?>
<!DOCTYPE svg PUBLIC "-//W3C//DTD SVG 1.1//EN" "http://www.w3.org/Graphics/SVG/1.1/DTD/svg11.dtd" >
<svg xmlns="http://www.w3.org/2000/svg" xmlns:xlink="http://www.w3.org/1999/xlink" version="1.1">
<metadata></metadata>
<defs>
<font id="interstate-lightregular" horiz-adv-x="1024" >
<font-face units-per-em="2048" ascent="1638" descent="-410" />
<missing-glyph horiz-adv-x="532" />
<glyph horiz-adv-x="0" />
<glyph horiz-adv-x="682" />
<glyph d="M166 1546h127q14 -213 221 -213q94 0 151.5 51.5t67.5 161.5h125q-8 -154 -98 -240.5t-250 -86.5q-150 0 -243 87t-101 240z" />
<glyph d="M399 1348q0 47 33 80.5t80 33.5t80 -33.5t33 -80.5t-33 -80t-80 -33t-80 32.5t-33 80.5z" />
<glyph d="M272 1466q0 49 17.5 93.5t50.5 76t76 50t96 18.5q51 0 95 -18.5t77 -50t50.5 -76t17.5 -93.5t-17.5 -93t-50.5 -76.5t-77 -51t-95 -18.5q-53 0 -96 18.5t-76 51t-50.5 76.5t-17.5 93zM369 1466q0 -66 38.5 -106.5t104.5 -40.5t104.5 40.5t38.5 106.5q0 63 -38.5 104.5 t-104.5 41.5t-104.5 -41t-38.5 -105z" />
<glyph unicode="&#xa;" d="M152 1219l190 327h205l-281 -327h-114zM514 1219l191 327h204l-280 -327h-115z" />
<glyph d="M313 -225q0 68 49.5 123t122.5 102h107q-78 -53 -115 -100t-37 -107q0 -41 24.5 -67.5t70.5 -26.5q49 0 93 11t97 34l31 -59q-61 -35 -129 -57.5t-127 -22.5q-90 0 -138.5 46t-48.5 124z" />
<glyph d="M174 1546h133l207 -211l207 211h129l-252 -327h-172z" />
<glyph unicode="&#xd;" horiz-adv-x="532" />
<glyph horiz-adv-x="935" d="M-104 0l976 1434h168l-977 -1434h-167z" />
<glyph horiz-adv-x="1222" d="M96 946v129h148v148q0 143 70.5 203.5t183.5 60.5q47 0 76.5 -4t58.5 -15v-145q-53 25 -125 25q-47 0 -79 -22.5t-32 -90.5v-160h211v-129h-211v-946h-153v946h-148zM856 1376q0 47 33 79t80 32q43 0 74.5 -32t31.5 -79q0 -45 -31.5 -76.5t-74.5 -31.5q-47 0 -80 31.5 t-33 76.5zM889 0v1075h153v-1075h-153z" />
<glyph horiz-adv-x="1222" d="M96 946v129h148v148q0 143 70.5 203.5t183.5 60.5q47 0 76.5 -4t58.5 -15v-145q-53 25 -125 25q-47 0 -79 -22.5t-32 -90.5v-160h211v-129h-211v-946h-153v946h-148zM889 0v1407l153 86v-1493h-153z" />
<glyph horiz-adv-x="1198" d="M82 377v182l127 111v764h160v-639l329 280v-182l-329 -281v-467h708v-145h-868v487z" />
<glyph horiz-adv-x="534" d="M90 436v187l100 88v696l154 86v-662l100 91v-187l-100 -88v-647h-154v524z" />
<glyph horiz-adv-x="1286" d="M125 0v139l678 924q43 59 88 118.5t86 112.5h-162h-649v140h983v-140l-678 -923q-43 -59 -88 -118.5t-86 -113.5h162h690v-139h-1024zM309 1853h133l207 -211l207 211h129l-252 -327h-172z" />
<glyph horiz-adv-x="1007" d="M111 0v113l587 833h-540v129h714v-112l-587 -834h587v-129h-761zM174 1546h133l207 -211l207 211h129l-252 -327h-172z" />
<glyph unicode=" "  horiz-adv-x="532" />
<glyph unicode="&#x09;" horiz-adv-x="532" />
<glyph unicode="&#xa0;" horiz-adv-x="532" />
<glyph unicode="!" horiz-adv-x="538" d="M143 102q0 51 37 90t88 39q49 0 87 -39t38 -90t-38 -88t-87 -37q-51 0 -88 37t-37 88zM190 760v674h158v-674l-37 -375h-86z" />
<glyph unicode="&#x22;" horiz-adv-x="942" d="M172 1434h190l-34 -670h-121zM580 1434h190l-35 -670h-121z" />
<glyph unicode="#" horiz-adv-x="1376" d="M106 360v144h246v426h-246v143h246v361h154v-361h364v361h154v-361h246v-143h-246v-426h246v-144h-246v-360h-154v360h-364v-360h-154v360h-246zM506 504h364v426h-364v-426z" />
<glyph unicode="$" horiz-adv-x="1191" d="M102 197l107 118q82 -78 176 -125t205 -47q143 0 226 60.5t83 175.5q0 49 -16.5 88t-56.5 72.5t-105.5 65.5t-163.5 67q-117 41 -195.5 81t-127 87t-70 104t-21.5 135q0 154 99.5 244t265.5 109v206h154v-204q117 -10 201.5 -49t164.5 -103l-102 -125q-78 66 -157 99.5 t-187 33.5q-147 0 -213 -57t-66 -143q0 -45 12.5 -80t49 -66t103.5 -62.5t175 -70.5q119 -43 199 -85t128 -90t68.5 -108.5t20.5 -140.5q0 -154 -104.5 -259t-292.5 -126v-207h-154v207q-123 14 -227.5 66.5t-178.5 128.5z" />
<glyph unicode="%" horiz-adv-x="1972" d="M123 1008q0 100 23.5 182t66.5 141.5t104.5 92t139.5 32.5t139 -32.5t104 -91t65.5 -140.5t22.5 -180t-24.5 -180t-68.5 -141.5t-105.5 -92.5t-136.5 -33q-76 0 -136.5 32t-103.5 90t-66.5 140t-23.5 181zM264 1012q0 -141 51.5 -232.5t141.5 -91.5q45 0 79.5 25.5 t59.5 69.5t38 101.5t13 123.5q0 70 -13 130t-38 103t-60.5 67.5t-80.5 24.5q-90 0 -140.5 -90t-50.5 -231zM465 0l891 1434h149l-891 -1434h-149zM1184 420q0 100 23.5 182t66.5 141.5t104.5 92t139.5 32.5t139 -32.5t104 -91t65.5 -140.5t22.5 -180t-24.5 -180 t-68.5 -141.5t-105.5 -92.5t-137.5 -33t-136 32t-103 90.5t-66.5 140.5t-23.5 180zM1325 424q0 -141 51 -232.5t142 -91.5q45 0 79.5 26t59 70t38 101t13.5 123q0 70 -13.5 130t-38 103t-60 67.5t-80.5 24.5q-90 0 -140.5 -90t-50.5 -231z" />
<glyph unicode="&#x26;" horiz-adv-x="1318" d="M125 362q0 80 21.5 143.5t63.5 115t101.5 93.5t134.5 81l-49 65q-53 72 -90 137.5t-37 149.5q0 68 26 124t73 98t114.5 64.5t151.5 22.5q121 0 212 -33.5t169 -95.5l-82 -127q-80 63 -148.5 90t-152.5 27q-96 0 -150.5 -45t-54.5 -117q0 -57 22.5 -102t63.5 -99l436 -567 q29 53 52.5 116.5t46.5 135.5l135 -41q-49 -182 -144 -328l207 -270h-188l-115 150q-78 -80 -174 -126.5t-213 -46.5q-119 0 -201 31t-133 83t-74.5 123t-23.5 148zM279 367q0 -104 71.5 -177t210.5 -73q92 0 166 36.5t133 102.5l-332 434q-135 -61 -192 -140t-57 -183z" />
<glyph unicode="'" horiz-adv-x="526" d="M166 1434h194l-34 -670h-125z" />
<glyph unicode="(" horiz-adv-x="712" d="M129 614q0 147 36 272.5t94 231t133 191.5t153 157l67 -63q-74 -76 -133 -160t-102 -179t-66.5 -204.5t-23.5 -234.5q0 -129 23.5 -241t66.5 -208t102.5 -179t132.5 -159l-67 -63q-78 70 -153 157.5t-133 192t-94 226.5t-36 263z" />
<glyph unicode=")" horiz-adv-x="712" d="M100 -162q145 150 235.5 339.5t90.5 438.5q0 129 -23.5 241t-66.5 208t-102.5 179t-133.5 159l68 63q78 -72 152.5 -158.5t133 -191t94.5 -226.5t36 -263q0 -147 -36 -272.5t-94.5 -231t-133 -192.5t-152.5 -156z" />
<glyph unicode="*" d="M147 911l304 138l-304 137l64 110l272 -202l-34 340h126l-34 -340l272 202l64 -110l-304 -137l304 -138l-64 -110l-272 203l34 -340h-126l34 340l-272 -203z" />
<glyph unicode="+" horiz-adv-x="1181" d="M113 635v139h403v416h150v-416h403v-139h-403v-416h-150v416h-403z" />
<glyph unicode="," horiz-adv-x="491" d="M123 -242l31 478h208l-133 -478h-106z" />
<glyph unicode="-" horiz-adv-x="659" d="M104 674v149h451v-149h-451z" />
<glyph unicode="." horiz-adv-x="491" d="M115 109q0 53 39 94t92 41t92 -41t39 -94t-39 -92.5t-92 -39.5t-92 39t-39 93z" />
<glyph unicode="/" horiz-adv-x="870" d="M53 -184l613 1802h151l-612 -1802h-152z" />
<glyph unicode="0" horiz-adv-x="1314" d="M121 717q0 178 39 316t109.5 231.5t169 142.5t218.5 49q119 0 218.5 -49t170 -142.5t109.5 -231.5t39 -316t-39 -316.5t-109.5 -231.5t-170 -142.5t-218.5 -49.5q-121 0 -219 49.5t-168.5 142.5t-109.5 231.5t-39 316.5zM279 717q0 -279 96 -437.5t282 -158.5 t282.5 158.5t96.5 437.5t-96 437.5t-283 158.5q-186 0 -282 -159t-96 -437z" />
<glyph unicode="1" horiz-adv-x="638" d="M31 1147v100q119 8 198.5 47t98.5 140h121v-1434h-158v1147h-260z" />
<glyph unicode="2" horiz-adv-x="1165" d="M80 0q6 135 41 235.5t94 180.5t141 147.5t185 136.5q94 63 154.5 111.5t95 90.5t47 82t12.5 89q0 111 -76 175.5t-217 64.5q-123 0 -202 -37t-146 -96l-92 116q43 35 89 65t100 51.5t116.5 32.5t140.5 11q94 0 176 -22.5t141.5 -68.5t93.5 -116.5t34 -167.5 q0 -80 -19.5 -139t-62.5 -112.5t-110.5 -105.5t-166.5 -120q-109 -74 -179.5 -132t-113.5 -110.5t-63.5 -102.5t-30.5 -107h760v-152h-942z" />
<glyph unicode="3" horiz-adv-x="1153" d="M66 176l106 107q68 -72 155 -117t191 -45q176 0 260 73.5t84 213.5q0 135 -93 202.5t-247 67.5h-94v137h98q141 0 209 69.5t68 184.5q0 51 -15.5 96t-50.5 78t-91 51.5t-138 18.5q-92 0 -164 -37t-125 -94l-100 102q31 33 71.5 63.5t91 55t107.5 39t123 14.5 q94 0 176 -22.5t142.5 -68.5t95.5 -114.5t35 -160.5q0 -131 -55.5 -210t-147.5 -126q51 -12 99 -37t84 -67t57.5 -100t21.5 -138q0 -205 -136 -320t-374 -115q-68 0 -133.5 16.5t-122.5 44.5t-105.5 63.5t-82.5 74.5z" />
<glyph unicode="4" horiz-adv-x="1280" d="M80 340v133l741 961h172v-957h197v-137h-197v-340h-147v340h-766zM254 477h129h463v635v131q-16 -25 -40 -56.5t-51.5 -67.5t-56 -73.5t-55.5 -72.5l-194 -252q-23 -29 -48.5 -61.5t-51 -65.5t-51.5 -63.5t-44 -53.5z" />
<glyph unicode="5" horiz-adv-x="1239" d="M119 109l78 127q80 -51 179 -83t208 -32q186 0 277 96t91 250q0 141 -86 221t-256 80q-100 0 -169.5 -25.5t-129.5 -66.5l-157 61l49 697h821v-152h-684l-35 -461q53 37 133 63.5t183 26.5q123 0 215 -31.5t152.5 -89t91 -137.5t30.5 -176q0 -129 -40 -223t-111.5 -155.5 t-170 -91.5t-217.5 -30q-133 0 -246.5 36t-205.5 96z" />
<glyph unicode="6" horiz-adv-x="1257" d="M125 543q0 92 17.5 193.5t57.5 200.5t104.5 188t156.5 160t214 116t279 55v-141q-285 -25 -452.5 -176.5t-222.5 -425.5q70 74 166 121t247 47q98 0 184.5 -27t151 -81t102 -137t37.5 -194q0 -115 -41 -201.5t-111.5 -145t-166.5 -88.5t-209 -30q-106 0 -200.5 31 t-164 98.5t-109.5 175t-40 261.5zM283 434q0 -68 25.5 -125t73.5 -99t114.5 -65.5t148.5 -23.5q180 0 272.5 87t92.5 226q0 145 -94.5 224t-264.5 79q-172 0 -270 -83t-98 -220z" />
<glyph unicode="7" horiz-adv-x="1138" d="M33 1282v152h942v-150q-94 -117 -179 -253t-149.5 -294.5t-104.5 -342t-44 -394.5h-162q6 193 42 369t97.5 335.5t144 304t181.5 273.5h-768z" />
<glyph unicode="8" horiz-adv-x="1302" d="M119 397q0 141 74.5 233.5t209.5 137.5q-98 39 -160.5 111.5t-62.5 191.5q0 84 31 154.5t91 122t148.5 80t202.5 28.5q115 0 202 -27.5t146.5 -79t90 -121t30.5 -153.5q0 -117 -60.5 -188.5t-162.5 -114.5q135 -45 210 -137.5t75 -233.5q0 -104 -38 -183t-107.5 -133 t-168 -81t-221.5 -27t-220 27t-166.5 79t-106.5 131t-37 183zM276 401q0 -127 93.5 -203.5t283.5 -76.5t281.5 74.5t91.5 201.5t-98.5 209t-278.5 82t-276.5 -80t-96.5 -207zM338 1075q0 -104 84 -174t231 -70q143 0 227.5 70t84.5 170q0 45 -17.5 89t-54.5 78t-97.5 54.5 t-146.5 20.5t-145.5 -20.5t-96 -53.5t-53 -76t-16.5 -88z" />
<glyph unicode="9" horiz-adv-x="1257" d="M90 991q0 115 41 202t111.5 145.5t167 88t208.5 29.5q106 0 200.5 -30.5t164.5 -98t110 -175t40 -261.5q0 -92 -17.5 -193.5t-57.5 -201t-104.5 -188.5t-156.5 -159.5t-214 -116.5t-280 -55v142q285 25 453 176t223 426q-70 -74 -166 -121t-248 -47q-98 0 -185 26.5 t-151.5 81t-101.5 137.5t-37 193zM248 999q0 -145 94 -224t264 -79q172 0 270.5 83t98.5 220q0 68 -26.5 125.5t-74 99.5t-114 65.5t-148.5 23.5q-180 0 -272 -87t-92 -227z" />
<glyph unicode=":" horiz-adv-x="491" d="M115 109q0 53 39 94t92 41t92 -41t39 -94t-39 -92.5t-92 -39.5t-92 39t-39 93zM115 963q0 53 39 94t92 41t92 -41t39 -94t-39 -92.5t-92 -39.5t-92 39t-39 93z" />
<glyph unicode=";" horiz-adv-x="491" d="M109 -242l30 478h209l-133 -478h-106zM115 963q0 53 39 94t92 41t92 -41t39 -94t-39 -92.5t-92 -39.5t-92 39t-39 93z" />
<glyph unicode="&#x3c;" horiz-adv-x="788" d="M117 635v139l530 508v-190l-409 -385l409 -385v-195z" />
<glyph unicode="=" horiz-adv-x="1181" d="M164 410v143h854v-143h-854zM164 856v143h854v-143h-854z" />
<glyph unicode="&#x3e;" horiz-adv-x="788" d="M141 127v190l410 385l-410 385v195l531 -508v-139z" />
<glyph unicode="?" horiz-adv-x="1148" d="M90 1266q82 80 203 135t276 55q98 0 179 -22.5t139.5 -66.5t91.5 -109.5t33 -153.5q0 -74 -17.5 -128t-50.5 -95t-80 -76t-106 -72q-51 -31 -82 -59.5t-47.5 -65.5t-21.5 -90t-5 -133h-158q0 102 7.5 170t33 118t73.5 91t128 90t123 99.5t43 138.5q0 98 -80 158.5 t-209 60.5q-115 0 -203 -42t-167 -116zM395 102q0 51 37 90t88 39q49 0 87 -39t38 -90t-38 -88t-87 -37q-51 0 -88 37t-37 88z" />
<glyph unicode="@" horiz-adv-x="1712" d="M117 717q0 160 55 296t153.5 234.5t234.5 153.5t296 55q164 0 300 -57.5t233.5 -155.5t151.5 -229.5t54 -276.5q0 -117 -21.5 -197.5t-61 -131t-96 -74t-124.5 -23.5q-78 0 -134 38t-85 91q-47 -59 -113.5 -94t-152.5 -35q-68 0 -125 17.5t-99 52.5t-65.5 87t-23.5 124 q0 66 25.5 116t70.5 83.5t105.5 51t129.5 17.5q80 0 134.5 -16.5t93.5 -38.5v121q0 66 -49.5 98.5t-161.5 32.5q-55 0 -108.5 -13.5t-100.5 -35.5l-45 88q61 31 126.5 47t141.5 16q137 0 220 -51t83 -176v-395q0 -55 34 -94.5t112 -39.5q41 0 75.5 17.5t59 57.5t39 102.5 t14.5 154.5q0 139 -48 255t-133 198t-202 127t-254 45q-139 0 -256 -46t-201 -129t-132 -202t-48 -262q0 -145 48 -265t132 -205t201 -131t256 -46q82 0 147.5 15t131.5 48l36 -90q-88 -41 -157.5 -55.5t-157.5 -14.5q-160 0 -296 55.5t-234.5 154t-153.5 234.5t-55 296z M608 598q0 -90 49.5 -137t159.5 -47q72 0 136.5 34.5t99.5 88.5v165q-39 23 -98.5 41.5t-139.5 18.5q-92 0 -149.5 -46t-57.5 -118z" />
<glyph unicode="A" horiz-adv-x="1388" d="M109 0l497 1434h176l498 -1434h-168l-123 365h-592l-125 -365h-163zM446 510h494l-158 471q-12 35 -25.5 76t-25.5 79t-21.5 71.5t-15.5 56.5q-6 -23 -15 -55.5t-21.5 -71.5t-27 -81t-26.5 -79z" />
<glyph unicode="B" horiz-adv-x="1282" d="M188 0v1434h525q86 0 156.5 -21.5t122.5 -65.5t81 -112t29 -160q0 -119 -57.5 -189.5t-149.5 -103.5q49 -12 98 -37.5t88 -67.5t63.5 -104.5t24.5 -148.5q0 -213 -119.5 -318.5t-347.5 -105.5h-514zM348 145h365q162 0 229.5 74t67.5 197q0 135 -82 208.5t-223 73.5h-357 v-553zM348 842h346q133 0 190.5 66.5t57.5 160.5q0 98 -57.5 158.5t-177.5 60.5h-359v-446z" />
<glyph unicode="C" horiz-adv-x="1286" d="M127 715q0 160 43 296t120 234t185.5 154.5t237.5 56.5q291 0 456 -229l-127 -97q-70 94 -143.5 137.5t-189.5 43.5q-92 0 -170 -44t-133.5 -122t-87 -186.5t-31.5 -239.5t31.5 -240.5t89 -188.5t135.5 -123t168 -44q117 0 200.5 49t153.5 139l111 -96 q-78 -106 -195 -172t-274 -66q-131 0 -239 56.5t-183.5 155t-116.5 233.5t-41 293z" />
<glyph unicode="D" horiz-adv-x="1347" d="M188 0v1434h379q141 0 261 -41t207 -128t136.5 -220.5t49.5 -317.5q0 -195 -52.5 -333t-144.5 -226t-217 -128t-268 -40h-351zM348 145h211q117 0 209 32t157.5 101.5t100.5 179t35 263.5q0 276 -129 421.5t-377 145.5h-207v-1143z" />
<glyph unicode="E" horiz-adv-x="1202" d="M188 0v1434h867v-146h-707v-450h410v-146h-410v-547h737v-145h-897z" />
<glyph unicode="F" horiz-adv-x="1122" d="M188 0v1434h842v-146h-682v-475h393v-145h-393v-668h-160z" />
<glyph unicode="G" horiz-adv-x="1349" d="M127 715q0 160 43 296t120 234t185.5 154.5t237.5 56.5q291 0 456 -229l-127 -97q-70 94 -143.5 137.5t-189.5 43.5q-92 0 -170 -44t-133.5 -122t-87 -186.5t-31.5 -239.5t32.5 -240.5t89 -188.5t134.5 -123t168 -44q180 0 275 108.5t95 319.5v12h-258v148h414v-140 q0 -147 -40 -258.5t-111.5 -186.5t-169 -112t-209.5 -37q-131 0 -239 56.5t-183.5 155t-116.5 233.5t-41 293z" />
<glyph unicode="H" horiz-adv-x="1409" d="M188 0v1434h160v-613h713v613h160v-1434h-160v676h-713v-676h-160z" />
<glyph unicode="I" horiz-adv-x="557" d="M199 0v1434h159v-1434h-159z" />
<glyph unicode="J" horiz-adv-x="1183" d="M61 324l152 51q43 -117 112.5 -184.5t196.5 -67.5q172 0 248 103.5t76 328.5v879h160v-885q0 -571 -490 -572q-182 0 -289.5 89.5t-165.5 257.5z" />
<glyph unicode="K" horiz-adv-x="1314" d="M188 0v1434h160v-625v-193q14 20 40 56.5t56.5 77.5t60.5 79.5t52 67.5l416 537h174l-420 -539l500 -895h-183l-423 764l-273 -352v-412h-160z" />
<glyph unicode="L" horiz-adv-x="1177" d="M188 0v1434h160v-1289h709v-145h-869z" />
<glyph unicode="M" horiz-adv-x="1613" d="M188 0v1434h179l338 -859q12 -33 27.5 -71.5t29.5 -77.5t26.5 -73t18.5 -56q6 23 18.5 57.5t26.5 73.5t29.5 78t27.5 69l342 859h174v-1434h-153v971v153q-6 -20 -15.5 -50t-21.5 -61.5t-24.5 -64.5t-24.5 -61l-383 -924l-377 924q-12 27 -24.5 60.5t-23.5 65t-20.5 61.5 t-15.5 50v-153v-971h-154z" />
<glyph unicode="N" horiz-adv-x="1409" d="M188 0v1434h156l621 -1000q12 -18 26.5 -43.5t28.5 -51.5t27.5 -48.5t19.5 -36.5v98v1082h154v-1434h-150l-627 981q-12 18 -26.5 44t-28.5 51.5t-27.5 48t-19.5 36.5v-98v-1063h-154z" />
<glyph unicode="O" horiz-adv-x="1443" d="M127 715q0 162 43 298t121 234.5t188.5 153.5t243.5 55t242.5 -54t187.5 -152.5t121 -233.5t43 -297t-43 -298t-122 -234.5t-189.5 -154t-243.5 -55.5t-242.5 54.5t-187.5 153t-120 233.5t-42 297zM287 719q0 -135 33.5 -244.5t92 -188.5t138.5 -121t174 -42q92 0 172 42 t137.5 118.5t90 186.5t32.5 245t-33.5 244.5t-93 188.5t-139.5 121t-174 42q-92 0 -171 -42t-136.5 -119t-90 -186.5t-32.5 -244.5z" />
<glyph unicode="P" horiz-adv-x="1265" d="M188 0v1434h537q98 0 181 -26t144.5 -79t96.5 -133.5t35 -189.5q0 -106 -36 -189.5t-99.5 -139.5t-153.5 -85t-197 -29h-348v-563h-160zM348 709h350h2q322 0 322 290q0 139 -78 214t-225 75h-371v-579z" />
<glyph unicode="Q" horiz-adv-x="1443" d="M127 715q0 162 43 298t121 234.5t188.5 153.5t243.5 55t242.5 -54t187.5 -152.5t121 -233.5t43 -297q0 -201 -67.5 -359.5t-184.5 -257.5l92 -149l-131 -78l-90 148q-102 -45 -217 -46q-133 0 -242.5 54.5t-187.5 153t-120 233.5t-42 297zM287 719q0 -135 33.5 -244.5 t92 -188.5t138.5 -121t174 -42q74 0 135 24l-117 191l131 78l115 -189q78 74 123 197t45 291q0 135 -33.5 244.5t-93 188.5t-139.5 121t-174 42q-92 0 -171 -42t-136.5 -119t-90 -186.5t-32.5 -244.5z" />
<glyph unicode="R" horiz-adv-x="1331" d="M188 0v1434h568q94 0 176 -25t141.5 -75t94 -126t34.5 -180q0 -168 -92 -270.5t-246 -134.5l316 -623h-185l-307 610h-340v-610h-160zM348 754h381q160 0 236.5 66.5t76.5 201.5q0 133 -74.5 199.5t-217.5 66.5h-402v-534z" />
<glyph unicode="S" horiz-adv-x="1212" d="M113 176l106 119q82 -78 176 -125t205 -47q143 0 226 65.5t83 180.5q0 49 -16 90t-56 75.5t-105.5 68.5t-164.5 69q-117 41 -195.5 83t-126.5 90t-69.5 107.5t-21.5 137.5q0 86 32.5 153.5t91 115.5t141.5 72.5t183 24.5q143 0 244.5 -41t191.5 -112l-102 -125 q-78 66 -157 99.5t-187 33.5q-74 0 -127 -17.5t-87 -46t-49.5 -66.5t-15.5 -81q0 -45 12.5 -81t49.5 -70t103.5 -66.5t174.5 -71.5q119 -43 199 -86t128 -94t68.5 -112.5t20.5 -141.5q0 -84 -31.5 -158t-93 -127t-149.5 -84t-201 -31q-147 0 -271 56.5t-210 142.5z" />
<glyph unicode="T" horiz-adv-x="1204" d="M100 1288v146h1004v-146h-422v-1288h-160v1288h-422z" />
<glyph unicode="U" horiz-adv-x="1388" d="M178 582v852h160v-848q0 -463 367 -463q186 0 266 112.5t80 346.5v852h159v-848q0 -299 -127 -454t-387 -155q-258 0 -388 153t-130 452z" />
<glyph unicode="V" horiz-adv-x="1368" d="M109 1434h167l320 -981q10 -33 23.5 -74t25.5 -81l22.5 -75t16.5 -53q6 18 16.5 54t23.5 77t26.5 83t23.5 73l322 977h164l-488 -1434h-176z" />
<glyph unicode="W" horiz-adv-x="1753" d="M117 1434h159l168 -922q6 -35 13.5 -80t14.5 -89t14.5 -84t11.5 -66q4 27 12 65.5t17.5 82.5t19.5 88t18 79l228 926h172l227 -926q8 -35 18.5 -79t19.5 -88t17 -83t13 -65q4 27 11 66.5t14 83.5t14.5 89t13.5 80l168 922h155l-286 -1434h-181l-225 918q-8 35 -18.5 77.5 t-19.5 85.5t-17 85t-15 75q-6 -33 -14 -74t-17 -84t-19.5 -86t-18.5 -79l-225 -918h-177z" />
<glyph unicode="X" horiz-adv-x="1294" d="M117 0l446 745l-409 689h180l184 -314q41 -68 72 -125t59 -112q27 53 58.5 110.5t72.5 126.5l185 314h176l-410 -684l447 -750h-181l-219 375q-41 70 -72.5 127t-58.5 110q-29 -55 -59.5 -112.5t-71.5 -124.5l-223 -375h-176z" />
<glyph unicode="Y" horiz-adv-x="1335" d="M96 1434h183l229 -412q43 -78 87 -161t75 -146q31 63 74.5 146t86.5 161l230 412h178l-491 -865v-569h-160v567z" />
<glyph unicode="Z" horiz-adv-x="1286" d="M125 0v139l678 924q43 59 88 118.5t86 112.5h-162h-649v140h983v-140l-678 -923q-43 -59 -88 -118.5t-86 -113.5h162h690v-139h-1024z" />
<glyph unicode="[" horiz-adv-x="720" d="M195 -225v1659h397v-125h-248v-1409h248v-125h-397z" />
<glyph unicode="\" horiz-adv-x="870" d="M53 1618h152l612 -1802h-151z" />
<glyph unicode="]" horiz-adv-x="720" d="M129 -100h248v1409h-248v125h397v-1659h-397v125z" />
<glyph unicode="^" horiz-adv-x="1142" d="M96 782l418 652h115l418 -652h-177l-301 484l-301 -484h-172z" />
<glyph unicode="_" d="M0 -184h1024v-129h-1024v129z" />
<glyph unicode="`" d="M238 1546h219l211 -327h-121z" />
<glyph unicode="a" horiz-adv-x="1103" d="M106 322q0 90 35 155.5t91.5 107.5t131 61.5t154.5 19.5q82 0 151.5 -17.5t116.5 -44.5v127q0 238 -233 238q-86 0 -156.5 -21.5t-136.5 -60.5l-57 125q72 39 164 62.5t196 23.5q174 0 275.5 -81t101.5 -267v-750h-154v131q-57 -61 -138 -107.5t-197 -46.5 q-63 0 -125 17.5t-111 57.5t-79 105.5t-30 164.5zM258 332q0 -121 60.5 -175.5t158.5 -54.5q104 0 182 47.5t127 114.5v217q-53 29 -115.5 45.5t-160.5 16.5q-119 0 -185.5 -54.5t-66.5 -156.5z" />
<glyph unicode="b" horiz-adv-x="1144" d="M170 0v1407l154 86v-549q57 61 135 107.5t188 46.5q80 0 150.5 -32t123 -97.5t82 -169t29.5 -244.5q0 -143 -31.5 -250.5t-87 -180.5t-129 -110t-157.5 -37q-102 0 -174 39t-129 105v-121h-154zM324 272q45 -68 119.5 -114.5t170.5 -46.5q135 0 201 112.5t66 329.5 q0 205 -72 308.5t-201 103.5q-86 0 -156.5 -42t-127.5 -114v-537z" />
<glyph unicode="c" horiz-adv-x="1013" d="M113 532q0 150 41 256.5t106.5 175t148.5 101.5t166 33q111 0 194 -36t146 -91l-92 -115q-59 53 -117.5 81t-140.5 28q-63 0 -117.5 -28t-94.5 -82t-62.5 -132t-22.5 -178q0 -199 80 -316.5t223 -117.5q78 0 135.5 30.5t112.5 83.5l92 -98q-68 -70 -149.5 -110 t-196.5 -40q-88 0 -170 34t-144.5 103.5t-100 173t-37.5 244.5z" />
<glyph unicode="d" horiz-adv-x="1144" d="M113 520q0 143 31.5 251t87 180.5t129 109.5t157.5 37q102 0 174 -39t129 -105v453l154 86v-1493h-154v131q-57 -61 -135 -107.5t-188 -46.5q-80 0 -151 32t-123 97.5t-81.5 169t-29.5 244.5zM264 522q0 -205 72 -308t201 -103q86 0 156.5 42t127.5 113v537 q-45 68 -119.5 115t-171.5 47q-135 0 -200.5 -113t-65.5 -330z" />
<glyph unicode="e" horiz-adv-x="1105" d="M113 543q0 129 33.5 231.5t93 174t140.5 110.5t177 39q104 0 185 -39t136.5 -109.5t83 -168t27.5 -212.5q0 -29 -1 -47t-5 -37h-717q10 -174 88 -274t211 -100q94 0 158.5 26.5t138.5 75.5l72 -111q-49 -31 -92 -54t-88 -38.5t-94.5 -24t-110.5 -8.5q-74 0 -152 29 t-140 95.5t-103 175t-41 266.5zM266 610h580q-10 158 -80 256.5t-211 98.5q-121 0 -197.5 -87t-91.5 -268z" />
<glyph unicode="f" horiz-adv-x="729" d="M96 946v129h148v148q0 143 70.5 203.5t183.5 60.5q47 0 76.5 -4t58.5 -15v-145q-53 25 -125 25q-47 0 -79 -22.5t-32 -90.5v-160h211v-129h-211v-946h-153v946h-148z" />
<glyph unicode="g" horiz-adv-x="1144" d="M113 520q0 143 31.5 251t87 180.5t129 109.5t157.5 37q102 0 174 -39t129 -105v121h154v-979q0 -121 -28.5 -211t-93.5 -151.5t-169 -93t-254 -35.5l-49 116q135 4 220 25t134 62.5t67.5 107.5t18.5 160v55q-57 -61 -135 -107.5t-188 -46.5q-80 0 -151 32t-123 97.5 t-81.5 169t-29.5 244.5zM264 522q0 -205 72 -308t201 -103q86 0 156.5 42t127.5 113v537q-45 68 -119.5 115t-171.5 47q-135 0 -200.5 -113t-65.5 -330z" />
<glyph unicode="h" horiz-adv-x="1161" d="M170 0v1407l154 86v-549q47 68 120.5 111t176.5 43q86 0 155.5 -25.5t118.5 -80t75.5 -137.5t26.5 -200v-655h-153v629q0 174 -62.5 255t-191.5 81q-113 0 -189.5 -80t-76.5 -256v-629h-154z" />
<glyph unicode="i" horiz-adv-x="514" d="M147 1376q0 47 33 79t80 32q43 0 75 -32t32 -79q0 -45 -32 -76.5t-75 -31.5q-47 0 -80 31.5t-33 76.5zM180 0v1075h154v-1075h-154z" />
<glyph unicode="j" horiz-adv-x="514" d="M-35 -281q74 23 116 45.5t64.5 56.5t28.5 83t6 123v1048h154v-1050q0 -92 -11.5 -160t-46 -117t-97 -84t-163.5 -59zM147 1376q0 47 33 79t80 32q43 0 75 -32t32 -79q0 -45 -32 -76.5t-75 -31.5q-47 0 -80 31.5t-33 76.5z" />
<glyph unicode="k" horiz-adv-x="1034" d="M170 0v1407l154 86v-928v-55l43 65l352 500h172l-283 -381l340 -694h-166l-272 565l-186 -256v-309h-154z" />
<glyph unicode="l" horiz-adv-x="514" d="M180 0v1407l154 86v-1493h-154z" />
<glyph unicode="m" horiz-adv-x="1736" d="M170 0v1075h154v-131q41 70 108.5 112t163.5 42q115 0 185.5 -53.5t109.5 -131.5q25 39 53.5 73t67.5 58.5t89 39t116 14.5q164 0 260 -103.5t96 -339.5v-655h-154v629q0 184 -57 260t-174 76q-109 0 -174.5 -79t-65.5 -257v-629h-153v629q0 184 -59.5 260t-172.5 76 q-111 0 -175 -79t-64 -257v-629h-154z" />
<glyph unicode="n" horiz-adv-x="1161" d="M170 0v1075h154v-131q47 68 120.5 111t176.5 43q86 0 155.5 -25.5t118.5 -80t75.5 -137.5t26.5 -200v-655h-153v629q0 174 -62.5 255t-191.5 81q-113 0 -189.5 -80t-76.5 -256v-629h-154z" />
<glyph unicode="o" horiz-adv-x="1159" d="M113 537q0 137 36.5 241.5t100 175t149.5 107.5t185 37q98 0 183 -35t146.5 -104.5t97.5 -173t36 -240.5t-37 -242.5t-100.5 -178.5t-149.5 -110t-185 -37q-98 0 -183 36t-146.5 106.5t-97 175t-35.5 242.5zM268 541q0 -213 85 -321.5t227 -108.5q141 0 227 108.5 t86 321.5t-86 318.5t-227 105.5t-226.5 -105.5t-85.5 -318.5z" />
<glyph unicode="p" horiz-adv-x="1144" d="M170 -395v1470h154v-131q57 61 135 107.5t188 46.5q80 0 150.5 -32t123 -97.5t82 -169t29.5 -244.5q0 -143 -31.5 -250.5t-87 -180.5t-129 -110t-157.5 -37q-102 0 -174 39t-129 105v-430zM324 272q45 -68 119.5 -114.5t170.5 -46.5q135 0 201 112.5t66 329.5 q0 205 -72 308.5t-201 103.5q-86 0 -156.5 -42t-127.5 -114v-537z" />
<glyph unicode="q" horiz-adv-x="1144" d="M113 520q0 143 31.5 251t87 180.5t129 109.5t157.5 37q102 0 174 -39t129 -105v121h154v-1384l-154 -86v526q-57 -61 -135 -107.5t-188 -46.5q-80 0 -151 32t-123 97.5t-81.5 169t-29.5 244.5zM264 522q0 -205 72 -308t201 -103q86 0 156.5 42t127.5 113v537 q-45 68 -119.5 115t-171.5 47q-135 0 -200.5 -113t-65.5 -330z" />
<glyph unicode="r" horiz-adv-x="833" d="M170 0v1075h154v-133q37 66 108.5 111t157.5 45q59 0 99 -7.5t69 -19.5l-39 -156q-33 18 -71 29.5t-91 11.5q-113 0 -173 -86t-60 -239v-631h-154z" />
<glyph unicode="s" horiz-adv-x="956" d="M88 115l90 112q66 -57 139.5 -87.5t153.5 -30.5q111 0 164 44t53 121q0 33 -13 59.5t-43 52.5t-78 51.5t-120 56.5q-80 35 -138 66.5t-95 68.5t-54.5 83t-17.5 111q0 61 25.5 111.5t69.5 87.5t105.5 56.5t135.5 19.5q111 0 197 -32t147 -83l-86 -113q-63 49 -122.5 73 t-145.5 24t-132.5 -37t-46.5 -96q0 -35 11.5 -59.5t39 -48.5t73.5 -47.5t114 -53.5q76 -35 135.5 -66t101.5 -68.5t63.5 -87.5t21.5 -122q0 -80 -32 -137.5t-83 -94.5t-117.5 -54.5t-136.5 -17.5q-111 0 -206 38t-173 100z" />
<glyph unicode="t" horiz-adv-x="761" d="M80 946v129h133v332l154 86v-418h266v-129h-266v-700q0 -72 23.5 -100.5t84.5 -28.5q47 0 81 7t71 23l-11 -133q-45 -18 -91 -27.5t-107 -9.5q-100 0 -152.5 54.5t-52.5 189.5v725h-133z" />
<glyph unicode="u" horiz-adv-x="1161" d="M164 420v655h153v-629q0 -174 62.5 -254.5t191.5 -80.5q113 0 190 79.5t77 255.5v629h153v-1075h-153v131q-47 -68 -121 -111t-176 -43q-86 0 -156 26t-119 80t-75.5 137t-26.5 200z" />
<glyph unicode="v" horiz-adv-x="1069" d="M82 1075h164l274 -846l17 -51l16 51l274 846h160l-385 -1075h-135z" />
<glyph unicode="w" horiz-adv-x="1495" d="M96 1075h158l168 -710q2 -14 6 -34t9 -41.5t8.5 -42t7.5 -34.5q2 14 7 34.5t9 42t9 41t9 34.5l193 710h139l193 -710q4 -14 9 -34t9 -41.5t8 -42t9 -34.5q2 14 6 34.5t9 42t8 41t7 34.5l168 710h154l-285 -1075h-141l-195 721q-4 14 -9 33.5t-9 41t-8 42t-7 34.5 q-2 -14 -6 -34.5t-9 -42t-9 -41t-8 -33.5l-195 -721h-137z" />
<glyph unicode="x" horiz-adv-x="1032" d="M104 0l332 555l-309 520h170l190 -334l33 -59l33 59l192 334h160l-309 -516l332 -559h-170l-213 373l-33 59l-33 -59l-215 -373h-160z" />
<glyph unicode="y" horiz-adv-x="1087" d="M82 1075h162l262 -780l37 -111l37 109l264 782h162l-535 -1454h-154l148 391z" />
<glyph unicode="z" horiz-adv-x="1007" d="M111 0v113l587 833h-540v129h714v-112l-587 -834h587v-129h-761z" />
<glyph unicode="{" horiz-adv-x="813" d="M117 535v143h49q70 0 95.5 28.5t25.5 118.5v183q0 217 100 323.5t318 112.5v-129q-143 -16 -205 -82t-62 -207v-143q0 -63 -6 -109.5t-19.5 -78t-37 -53t-58.5 -38.5q35 -16 58.5 -37.5t37 -54.5t19.5 -78t6 -108v-133q0 -141 61.5 -207t205.5 -82v-129 q-217 6 -317.5 112.5t-100.5 323.5v176q0 90 -25.5 119t-95.5 29h-49z" />
<glyph unicode="|" horiz-adv-x="622" d="M238 -379v2017h147v-2017h-147z" />
<glyph unicode="}" horiz-adv-x="813" d="M109 -96q143 16 204.5 81.5t61.5 207.5v143q0 63 6 108t19.5 78t37 54.5t58.5 37.5q-35 16 -58.5 38t-37 53.5t-19.5 77.5t-6 110v133q0 141 -61.5 206.5t-204.5 82.5v129q217 -6 317 -112.5t100 -323.5v-177q0 -90 26 -118.5t95 -28.5h49v-143h-49q-70 0 -95.5 -29 t-25.5 -119v-182q0 -217 -100 -323.5t-317 -112.5v129z" />
<glyph unicode="~" horiz-adv-x="1130" d="M88 655q53 129 117.5 193.5t175.5 64.5q59 0 101 -18t91 -51q59 -39 99.5 -59.5t77.5 -20.5q55 0 85.5 35t71.5 127l135 -62q-53 -129 -117.5 -193.5t-174.5 -64.5q-61 0 -103.5 19.5t-89.5 50.5q-63 41 -104 60.5t-72 19.5q-55 0 -87 -37t-71 -125z" />
<glyph unicode="&#xa1;" horiz-adv-x="538" d="M145 1331q0 51 38 88t87 37q51 0 88 -37t37 -88t-36.5 -90t-88.5 -39q-49 0 -87 39t-38 90zM190 0v674l37 375h86l35 -375v-674h-158z" />
<glyph unicode="&#xa2;" horiz-adv-x="1013" d="M113 725q0 129 30.5 226.5t83 166t119 108.5t139.5 56v193h158v-189q86 -10 152.5 -43t119.5 -80l-88 -110q-66 55 -122 79.5t-140 24.5q-63 0 -117.5 -27.5t-94.5 -82t-62.5 -132t-22.5 -178.5q0 -199 80 -316.5t223 -117.5q78 0 136.5 29.5t113.5 83.5l90 -97 q-55 -57 -119.5 -94t-148.5 -49v-199h-158v199q-76 14 -143.5 55t-118.5 109t-80.5 164t-29.5 221z" />
<glyph unicode="&#xa3;" horiz-adv-x="1251" d="M172 0v143q45 53 82 103.5t63.5 103.5t41 114.5t14.5 135.5h-201v139h178q-12 33 -29.5 64t-37.5 65q-35 57 -52.5 106.5t-17.5 123.5q0 86 36 153.5t97.5 112.5t145 68.5t180.5 23.5q135 0 240.5 -46t201.5 -132l-96 -117q-78 74 -164 113t-186 39q-150 0 -223.5 -63.5 t-73.5 -149.5q0 -49 16 -94t49 -99q20 -35 40 -77t34 -91h311v-139h-297q-2 -78 -17 -143.5t-39 -120.5t-53.5 -102.5t-62.5 -88.5h778v-145h-958z" />
<glyph unicode="&#xa4;" horiz-adv-x="1490" d="M41 707l340 247q12 8 18 7q10 -4 4 -21l-61 -164h338v387l-164 -61q-16 -6 -20 4q-2 6 6 18l248 340l247 -340q8 -12 7 -18q-4 -10 -21 -4l-164 61v-387h330l-62 164q-6 16 5 21q6 2 18 -7l340 -247l-340 -248q-12 -8 -18 -6q-10 4 -5 20l62 164h-330v-367l164 62 q16 6 21 -4q2 -6 -7 -19l-247 -340l-248 340q-8 12 -6 19q4 10 20 4l164 -62v367h-338l61 -164q6 -16 -4 -20q-6 -2 -18 6z" />
<glyph unicode="&#xa5;" horiz-adv-x="1253" d="M76 1434h182l213 -412q41 -80 85 -167t73 -150q14 31 33.5 70.5t40 81.5t42 84t41.5 81l213 412h179l-471 -865v-159h317v-142h-317v-268h-160v268h-336v142h336v157z" />
<glyph unicode="&#xa6;" horiz-adv-x="1490" d="M41 707l340 247q12 8 18 7q10 -4 4 -21l-61 -164h338v387l-164 -61q-16 -6 -20 4q-2 6 6 18l248 340l247 -340q8 -12 7 -18q-4 -10 -21 -4l-164 61v-387h330l-62 164q-6 16 5 21q6 2 18 -7l340 -247l-340 -248q-12 -8 -18 -6q-10 4 -5 20l62 164h-330v-367l164 62 q16 6 21 -4q2 -6 -7 -19l-247 -340l-248 340q-8 12 -6 19q4 10 20 4l164 -62v367h-338l61 -164q6 -16 -4 -20q-6 -2 -18 6z" />
<glyph unicode="&#xa7;" horiz-adv-x="1286" d="M113 571q0 61 19.5 113.5t53 96.5t80.5 80t101 67q-53 41 -82 93t-29 124t29.5 129t82 98t125 62.5t160.5 21.5q117 0 212.5 -38t183.5 -109l-95 -115q-41 33 -77.5 56.5t-74.5 36.5t-80 19.5t-93 6.5q-94 0 -154.5 -42t-60.5 -114q0 -35 13 -64.5t47 -55t90.5 -49 t142.5 -44.5q135 -35 224 -71.5t143 -83t77 -105.5t23 -135q0 -61 -19.5 -113.5t-53.5 -96.5t-81 -80t-100 -66q53 -41 81.5 -93.5t28.5 -124.5t-29.5 -129t-82 -98t-125 -62.5t-160.5 -21.5q-117 0 -212 38t-183 110l94 114q41 -35 77.5 -57.5t74.5 -35.5t80 -19.5t93 -6.5 q94 0 154.5 42t60.5 114q0 35 -13 64.5t-47 55.5t-90 48.5t-142 44.5q-135 33 -224.5 71t-143.5 84t-76.5 104.5t-22.5 135.5zM270 584q0 -43 12.5 -80t47.5 -67.5t98.5 -58.5t165.5 -52q53 -14 102 -28.5t95 -33.5q106 49 165.5 119t59.5 154q0 43 -12.5 79.5t-47 67.5 t-98 58.5t-166.5 52.5q-53 14 -102 28.5t-94 32.5q-106 -49 -166 -118.5t-60 -153.5z" />
<glyph unicode="&#xa8;" d="M201 1348q0 47 33.5 80.5t80.5 33.5q45 0 78 -33.5t33 -80.5t-33 -80t-78 -33q-47 0 -80.5 32.5t-33.5 80.5zM598 1348q0 47 33 80.5t80 33.5t79.5 -33.5t32.5 -80.5t-32.5 -80t-79.5 -33t-80 32.5t-33 80.5z" />
<glyph unicode="&#xa9;" horiz-adv-x="1712" d="M117 717q0 166 56 302t155.5 233.5t234.5 150.5t293 53t293 -53t234.5 -150.5t155.5 -233.5t56 -302t-56 -302t-155.5 -233.5t-234.5 -151t-293 -53.5t-293 53.5t-234.5 151t-155.5 233.5t-56 302zM217 717q0 -143 49 -262t135 -204t203 -132t252 -47t252 47t203 132 t135 204t49 262t-49 262t-135 204t-203 132t-252 47t-252 -47t-203 -132t-135 -204t-49 -262zM516 715q0 92 25.5 171t70.5 135t108.5 89t139.5 33q88 0 154.5 -34t120.5 -105l-86 -68q-45 57 -86 80.5t-105 23.5q-51 0 -93 -23.5t-72.5 -66.5t-48 -102.5t-17.5 -128.5 q0 -72 17.5 -131.5t48 -102.5t73.5 -67.5t92 -24.5q66 0 112 28t91 83l80 -70q-51 -68 -122 -105.5t-163 -37.5q-78 0 -140.5 32.5t-106.5 89t-68.5 134.5t-24.5 168z" />
<glyph unicode="&#xaa;" horiz-adv-x="931" d="M96 838q0 74 28 126t74 85.5t107.5 50t126.5 16.5q63 0 115.5 -12t91.5 -31v88q0 178 -178 178q-127 0 -236 -65l-55 110q61 33 137 52.5t162 19.5q143 0 226 -64.5t83 -215.5v-598h-139v90q-45 -45 -108.5 -77t-151.5 -32q-51 0 -102.5 14.5t-91.5 47t-64.5 86 t-24.5 131.5zM233 846q0 -90 46.5 -131t119.5 -41q82 0 141.5 34.5t98.5 86.5v163q-41 20 -90 33t-123 13q-90 0 -141.5 -41t-51.5 -117z" />
<glyph unicode="&#xab;" horiz-adv-x="1179" d="M61 537l416 538h174l-415 -536l415 -539h-174zM498 537l415 538h174l-415 -536l415 -539h-174z" />
<glyph unicode="&#xac;" horiz-adv-x="1290" d="M113 635v143h809l-62 154q-6 10 6 18q8 6 23 -4l360 -239l-360 -240q-14 -10 -23 -4q-12 8 -6 18l62 154h-809z" />
<glyph unicode="&#xad;" horiz-adv-x="1490" d="M41 707l340 247q12 8 18 7q10 -4 4 -21l-61 -164h338v387l-164 -61q-16 -6 -20 4q-2 6 6 18l248 340l247 -340q8 -12 7 -18q-4 -10 -21 -4l-164 61v-387h330l-62 164q-6 16 5 21q6 2 18 -7l340 -247l-340 -248q-12 -8 -18 -6q-10 4 -5 20l62 164h-330v-367l164 62 q16 6 21 -4q2 -6 -7 -19l-247 -340l-248 340q-8 12 -6 19q4 10 20 4l164 -62v367h-338l61 -164q6 -16 -4 -20q-6 -2 -18 6z" />
<glyph unicode="&#xae;" horiz-adv-x="1712" d="M117 717q0 166 56 302t155.5 233.5t234.5 150.5t293 53t293 -53t234.5 -150.5t155.5 -233.5t56 -302t-56 -302t-155.5 -233.5t-234.5 -151t-293 -53.5t-293 53.5t-234.5 151t-155.5 233.5t-56 302zM217 717q0 -143 49 -262t135 -204t203 -132t252 -47t252 47t203 132 t135 204t49 262t-49 262t-135 204t-203 132t-252 47t-252 -47t-203 -132t-135 -204t-49 -262zM590 322v817h332q111 0 186.5 -57.5t75.5 -178.5q0 -92 -51.5 -151.5t-137.5 -79.5l183 -350h-127l-177 342h-176v-342h-108zM698 766h205q172 0 172 137q0 70 -41 104.5 t-119 34.5h-217v-276z" />
<glyph unicode="&#xaf;" d="M233 1266v143h558v-143h-558z" />
<glyph unicode="&#xb0;" horiz-adv-x="974" d="M104 1065q0 82 29 153.5t80 124t120.5 83t153.5 30.5t155 -30.5t121 -83t78.5 -124t28.5 -153.5q0 -84 -28.5 -156.5t-78.5 -126t-121 -83t-155 -29.5t-153.5 29.5t-120.5 83t-80 126t-29 156.5zM240 1065q0 -121 68.5 -194.5t178.5 -73.5q113 0 180.5 73.5t67.5 194.5 q0 115 -67.5 189.5t-180.5 74.5q-55 0 -101 -20.5t-78 -55t-50 -83t-18 -105.5z" />
<glyph unicode="&#xb1;" horiz-adv-x="1490" d="M41 707l340 247q12 8 18 7q10 -4 4 -21l-61 -164h338v387l-164 -61q-16 -6 -20 4q-2 6 6 18l248 340l247 -340q8 -12 7 -18q-4 -10 -21 -4l-164 61v-387h330l-62 164q-6 16 5 21q6 2 18 -7l340 -247l-340 -248q-12 -8 -18 -6q-10 4 -5 20l62 164h-330v-367l164 62 q16 6 21 -4q2 -6 -7 -19l-247 -340l-248 340q-8 12 -6 19q4 10 20 4l164 -62v367h-338l61 -164q6 -16 -4 -20q-6 -2 -18 6z" />
<glyph unicode="&#xb2;" horiz-adv-x="1490" d="M41 707l340 247q12 8 18 7q10 -4 4 -21l-61 -164h338v387l-164 -61q-16 -6 -20 4q-2 6 6 18l248 340l247 -340q8 -12 7 -18q-4 -10 -21 -4l-164 61v-387h330l-62 164q-6 16 5 21q6 2 18 -7l340 -247l-340 -248q-12 -8 -18 -6q-10 4 -5 20l62 164h-330v-367l164 62 q16 6 21 -4q2 -6 -7 -19l-247 -340l-248 340q-8 12 -6 19q4 10 20 4l164 -62v367h-338l61 -164q6 -16 -4 -20q-6 -2 -18 6z" />
<glyph unicode="&#xb3;" horiz-adv-x="1490" d="M41 707l340 247q12 8 18 7q10 -4 4 -21l-61 -164h338v387l-164 -61q-16 -6 -20 4q-2 6 6 18l248 340l247 -340q8 -12 7 -18q-4 -10 -21 -4l-164 61v-387h330l-62 164q-6 16 5 21q6 2 18 -7l340 -247l-340 -248q-12 -8 -18 -6q-10 4 -5 20l62 164h-330v-367l164 62 q16 6 21 -4q2 -6 -7 -19l-247 -340l-248 340q-8 12 -6 19q4 10 20 4l164 -62v367h-338l61 -164q6 -16 -4 -20q-6 -2 -18 6z" />
<glyph unicode="&#xb4;" d="M356 1219l211 327h219l-309 -327h-121z" />
<glyph unicode="&#xb5;" horiz-adv-x="1576" d="M41 707l360 239q14 10 23 4q12 -8 6 -18l-61 -154h839l-61 154q-6 10 6 18q8 6 23 -4l360 -239l-360 -240q-14 -10 -23 -4q-12 8 -6 18l61 154h-839l61 -154q6 -10 -6 -18q-8 -6 -23 4z" />
<glyph unicode="&#xb6;" horiz-adv-x="1409" d="M96 985q0 106 38 190.5t101.5 141.5t147.5 87t178 30h658v-1813h-158v1673h-187v-1673h-157v914h-156q-94 0 -179 29.5t-148.5 87t-100.5 141.5t-37 192z" />
<glyph unicode="&#xb7;" horiz-adv-x="491" d="M115 752q0 53 39 94t92 41t92 -41t39 -94t-39 -92t-92 -39t-92 38.5t-39 92.5z" />
<glyph unicode="&#xb8;" d="M279 -322l38 66q86 -55 189 -55q80 0 108.5 26.5t28.5 61.5q0 31 -16.5 49t-48.5 18q-59 0 -99 -37l-73 29l51 164h92l-35 -104q23 14 49.5 21t63.5 7q20 0 44.5 -7t45 -24.5t34 -44t13.5 -65.5q0 -49 -19.5 -84t-53.5 -55.5t-78 -29.5t-93 -9q-63 0 -125.5 19.5 t-115.5 53.5z" />
<glyph unicode="&#xb9;" horiz-adv-x="1490" d="M41 707l340 247q12 8 18 7q10 -4 4 -21l-61 -164h338v387l-164 -61q-16 -6 -20 4q-2 6 6 18l248 340l247 -340q8 -12 7 -18q-4 -10 -21 -4l-164 61v-387h330l-62 164q-6 16 5 21q6 2 18 -7l340 -247l-340 -248q-12 -8 -18 -6q-10 4 -5 20l62 164h-330v-367l164 62 q16 6 21 -4q2 -6 -7 -19l-247 -340l-248 340q-8 12 -6 19q4 10 20 4l164 -62v367h-338l61 -164q6 -16 -4 -20q-6 -2 -18 6z" />
<glyph unicode="&#xba;" horiz-adv-x="983" d="M111 1008q0 111 29.5 193.5t81.5 140t122 86t152 28.5q80 0 149.5 -27.5t119.5 -83t78.5 -138t28.5 -193.5q0 -109 -29.5 -194t-81.5 -142t-122 -87t-152 -30q-80 0 -149.5 28.5t-119.5 85t-78.5 140.5t-28.5 193zM250 1012q0 -166 65.5 -247t176.5 -81t176 81t65 247 q0 164 -65.5 242.5t-175.5 78.5q-111 0 -176.5 -78.5t-65.5 -242.5z" />
<glyph unicode="&#xbb;" horiz-adv-x="1179" d="M92 0l416 537l-416 538h174l416 -536l-416 -539h-174zM528 0l416 537l-416 538h174l416 -536l-416 -539h-174z" />
<glyph unicode="&#xbc;" horiz-adv-x="1490" d="M41 707l340 247q12 8 18 7q10 -4 4 -21l-61 -164h338v387l-164 -61q-16 -6 -20 4q-2 6 6 18l248 340l247 -340q8 -12 7 -18q-4 -10 -21 -4l-164 61v-387h330l-62 164q-6 16 5 21q6 2 18 -7l340 -247l-340 -248q-12 -8 -18 -6q-10 4 -5 20l62 164h-330v-367l164 62 q16 6 21 -4q2 -6 -7 -19l-247 -340l-248 340q-8 12 -6 19q4 10 20 4l164 -62v367h-338l61 -164q6 -16 -4 -20q-6 -2 -18 6z" />
<glyph unicode="&#xbd;" horiz-adv-x="1490" d="M41 707l340 247q12 8 18 7q10 -4 4 -21l-61 -164h338v387l-164 -61q-16 -6 -20 4q-2 6 6 18l248 340l247 -340q8 -12 7 -18q-4 -10 -21 -4l-164 61v-387h330l-62 164q-6 16 5 21q6 2 18 -7l340 -247l-340 -248q-12 -8 -18 -6q-10 4 -5 20l62 164h-330v-367l164 62 q16 6 21 -4q2 -6 -7 -19l-247 -340l-248 340q-8 12 -6 19q4 10 20 4l164 -62v367h-338l61 -164q6 -16 -4 -20q-6 -2 -18 6z" />
<glyph unicode="&#xbe;" horiz-adv-x="1490" d="M41 707l340 247q12 8 18 7q10 -4 4 -21l-61 -164h338v387l-164 -61q-16 -6 -20 4q-2 6 6 18l248 340l247 -340q8 -12 7 -18q-4 -10 -21 -4l-164 61v-387h330l-62 164q-6 16 5 21q6 2 18 -7l340 -247l-340 -248q-12 -8 -18 -6q-10 4 -5 20l62 164h-330v-367l164 62 q16 6 21 -4q2 -6 -7 -19l-247 -340l-248 340q-8 12 -6 19q4 10 20 4l164 -62v367h-338l61 -164q6 -16 -4 -20q-6 -2 -18 6z" />
<glyph unicode="&#xbf;" horiz-adv-x="1148" d="M137 330q0 74 17.5 128t50.5 95t80 76t106 71q51 31 82 59.5t47.5 65.5t21.5 90.5t5 133.5h158q0 -102 -7.5 -170t-33 -118t-73.5 -91t-128 -90t-123 -99.5t-43 -138.5q0 -98 80 -158.5t209 -60.5q115 0 203 42t167 116l103 -113q-82 -80 -203 -135.5t-276 -55.5 q-98 0 -179.5 23t-139.5 67t-91 109.5t-33 153.5zM504 1331q0 51 38 88t87 37q51 0 88 -37t37 -88t-37 -90t-88 -39q-49 0 -87 39t-38 90z" />
<glyph unicode="&#xc0;" horiz-adv-x="1388" d="M109 0l497 1434h176l498 -1434h-168l-123 365h-592l-125 -365h-163zM328 1853h219l211 -327h-121zM446 510h494l-158 471q-12 35 -25.5 76t-25.5 79t-21.5 71.5t-15.5 56.5q-6 -23 -15 -55.5t-21.5 -71.5t-27 -81t-26.5 -79z" />
<glyph unicode="&#xc1;" horiz-adv-x="1388" d="M109 0l497 1434h176l498 -1434h-168l-123 365h-592l-125 -365h-163zM446 510h494l-158 471q-12 35 -25.5 76t-25.5 79t-21.5 71.5t-15.5 56.5q-6 -23 -15 -55.5t-21.5 -71.5t-27 -81t-26.5 -79zM628 1526l211 327h219l-309 -327h-121z" />
<glyph unicode="&#xc2;" horiz-adv-x="1388" d="M109 0l497 1434h176l498 -1434h-168l-123 365h-592l-125 -365h-163zM356 1485l252 327h172l252 -327h-133l-207 211l-207 -211h-129zM446 510h494l-158 471q-12 35 -25.5 76t-25.5 79t-21.5 71.5t-15.5 56.5q-6 -23 -15 -55.5t-21.5 -71.5t-27 -81t-26.5 -79z" />
<glyph unicode="&#xc3;" horiz-adv-x="1388" d="M109 0l497 1434h176l498 -1434h-168l-123 365h-592l-125 -365h-163zM329 1538q0 68 17.5 118t46.5 82.5t66.5 49t78.5 16.5t77 -12t75 -41q37 -29 61.5 -46.5t42 -27.5t30.5 -13t28 -3q33 0 51 32.5t29 104.5h127q0 -68 -17.5 -118t-46.5 -83t-66.5 -49t-78.5 -16t-77 12 t-75 41q-37 29 -61.5 46t-41 27.5t-29.5 13.5t-30 3q-29 0 -49 -28.5t-31 -108.5h-127zM446 510h494l-158 471q-12 35 -25.5 76t-25.5 79t-21.5 71.5t-15.5 56.5q-6 -23 -15 -55.5t-21.5 -71.5t-27 -81t-26.5 -79z" />
<glyph unicode="&#xc4;" horiz-adv-x="1388" d="M109 0l497 1434h176l498 -1434h-168l-123 365h-592l-125 -365h-163zM385 1655q0 47 33.5 80.5t80.5 33.5q45 0 78 -33.5t33 -80.5t-33 -80t-78 -33q-47 0 -80.5 32.5t-33.5 80.5zM446 510h494l-158 471q-12 35 -25.5 76t-25.5 79t-21.5 71.5t-15.5 56.5q-6 -23 -15 -55.5 t-21.5 -71.5t-27 -81t-26.5 -79zM782 1655q0 47 33 80.5t80 33.5t79.5 -33.5t32.5 -80.5t-32.5 -80t-79.5 -33t-80 32.5t-33 80.5z" />
<glyph unicode="&#xc5;" horiz-adv-x="1388" d="M109 0l471 1348q-59 31 -93 87t-34 128q0 49 17 93t50 75.5t76 50t96 18.5q51 0 95 -18.5t77 -50t50.5 -75.5t17.5 -93q0 -70 -34 -126.5t-91 -86.5l473 -1350h-168l-123 365h-592l-125 -365h-163zM446 510h494l-158 471q-12 35 -25.5 76t-25.5 79t-21.5 71.5t-15.5 56.5 q-6 -23 -15 -55.5t-21.5 -71.5t-27 -81t-26.5 -79zM549 1563q0 -66 39 -107t104 -41q66 0 105 41t39 107q0 63 -39 104t-105 41t-104.5 -41t-38.5 -104z" />
<glyph unicode="&#xc6;" horiz-adv-x="2043" d="M49 0l963 1434h884v-146h-714v-450h417v-146h-417v-547h745v-145h-897v365h-559l-240 -365h-182zM565 510h465v455q0 33 1 70.5t1 73.5t1 66.5t1 53.5q-10 -16 -26.5 -42t-35 -54.5t-36.5 -57t-35 -53.5z" />
<glyph unicode="&#xc7;" horiz-adv-x="1286" d="M127 715q0 160 43 296t120 234t185.5 154.5t237.5 56.5q291 0 456 -229l-127 -97q-70 94 -143.5 137.5t-189.5 43.5q-92 0 -170 -44t-133.5 -122t-87 -186.5t-31.5 -239.5t31.5 -240.5t89 -188.5t135.5 -123t168 -44q117 0 200.5 49t153.5 139l111 -96 q-76 -104 -187.5 -168.5t-263.5 -69.5l-27 -81q23 14 49.5 21t63.5 7q20 0 45 -7t45.5 -24.5t33.5 -44t13 -65.5q0 -49 -19.5 -84t-53 -55.5t-77.5 -29.5t-93 -9q-63 0 -126 19.5t-116 53.5l39 66q86 -55 188 -55q80 0 108.5 26.5t28.5 61.5q0 31 -16 49t-49 18 q-59 0 -98 -37l-74 29l45 146q-117 14 -210 76.5t-159.5 158.5t-102.5 223t-36 275z" />
<glyph unicode="&#xc8;" horiz-adv-x="1202" d="M188 0v1434h867v-146h-707v-450h410v-146h-410v-547h737v-145h-897zM301 1853h219l211 -327h-121z" />
<glyph unicode="&#xc9;" horiz-adv-x="1202" d="M188 0v1434h867v-146h-707v-450h410v-146h-410v-547h737v-145h-897zM522 1526l211 327h219l-309 -327h-121z" />
<glyph unicode="&#xca;" horiz-adv-x="1202" d="M188 0v1434h867v-146h-707v-450h410v-146h-410v-547h737v-145h-897zM283 1526l252 327h172l252 -327h-133l-207 211l-207 -211h-129z" />
<glyph unicode="&#xcb;" horiz-adv-x="1202" d="M188 0v1434h867v-146h-707v-450h410v-146h-410v-547h737v-145h-897zM312 1655q0 47 33.5 80.5t80.5 33.5q45 0 78 -33.5t33 -80.5t-33 -80t-78 -33q-47 0 -80.5 32.5t-33.5 80.5zM709 1655q0 47 33 80.5t80 33.5t79.5 -33.5t32.5 -80.5t-32.5 -80t-79.5 -33t-80 32.5 t-33 80.5z" />
<glyph unicode="&#xcc;" horiz-adv-x="557" d="M-75 1853h219l211 -327h-121zM199 0v1434h159v-1434h-159z" />
<glyph unicode="&#xcd;" horiz-adv-x="557" d="M199 0v1434h159v-1434h-159zM209 1526l211 327h219l-309 -327h-121z" />
<glyph unicode="&#xce;" horiz-adv-x="557" d="M-64 1516l252 327h172l252 -327h-133l-207 211l-207 -211h-129zM199 0v1434h159v-1434h-159z" />
<glyph unicode="&#xcf;" horiz-adv-x="557" d="M-32 1663q0 47 33.5 80.5t80.5 33.5q45 0 78 -33.5t33 -80.5t-33 -80t-78 -33q-47 0 -80.5 32.5t-33.5 80.5zM199 0v1434h159v-1434h-159zM365 1663q0 47 33 80.5t80 33.5t79.5 -33.5t32.5 -80.5t-32.5 -80t-79.5 -33t-80 32.5t-33 80.5z" />
<glyph unicode="&#xd0;" horiz-adv-x="1396" d="M82 678v143h127v613h379q141 0 261 -41t207 -128t136 -220.5t49 -317.5q0 -195 -52 -333t-144.5 -226t-217.5 -128t-268 -40h-350v678h-127zM365 145h215q117 0 209 32t157.5 101.5t100 179t34.5 263.5q0 276 -129 421.5t-377 145.5h-210v-467h290v-143h-290v-533z" />
<glyph unicode="&#xd1;" horiz-adv-x="1409" d="M188 0v1434h156l621 -1000q12 -18 26.5 -43.5t28.5 -51.5t27.5 -48.5t19.5 -36.5v98v1082h154v-1434h-150l-627 981q-12 18 -26.5 44t-28.5 51.5t-27.5 48t-19.5 36.5v-98v-1063h-154zM350 1546q0 68 17.5 118t46.5 82.5t66.5 49t78.5 16.5t77 -12t75 -41 q37 -29 61.5 -46.5t42 -27.5t30.5 -13t28 -3q33 0 51 32.5t29 104.5h127q0 -68 -17.5 -118t-46.5 -83t-66.5 -49t-78.5 -16t-77 12t-75 41q-37 29 -61.5 46t-41 27.5t-29.5 13.5t-30 3q-29 0 -49 -28.5t-31 -108.5h-127z" />
<glyph unicode="&#xd2;" horiz-adv-x="1443" d="M127 715q0 162 43 298t121 234.5t188.5 153.5t243.5 55t242.5 -54t187.5 -152.5t121 -233.5t43 -297t-43 -298t-122 -234.5t-189.5 -154t-243.5 -55.5t-242.5 54.5t-187.5 153t-120 233.5t-42 297zM287 719q0 -135 33.5 -244.5t92 -188.5t138.5 -121t174 -42q92 0 172 42 t137.5 118.5t90 186.5t32.5 245t-33.5 244.5t-93 188.5t-139.5 121t-174 42q-92 0 -171 -42t-136.5 -119t-90 -186.5t-32.5 -244.5zM373 1853h219l211 -327h-121z" />
<glyph unicode="&#xd3;" horiz-adv-x="1443" d="M127 715q0 162 43 298t121 234.5t188.5 153.5t243.5 55t242.5 -54t187.5 -152.5t121 -233.5t43 -297t-43 -298t-122 -234.5t-189.5 -154t-243.5 -55.5t-242.5 54.5t-187.5 153t-120 233.5t-42 297zM287 719q0 -135 33.5 -244.5t92 -188.5t138.5 -121t174 -42q92 0 172 42 t137.5 118.5t90 186.5t32.5 245t-33.5 244.5t-93 188.5t-139.5 121t-174 42q-92 0 -171 -42t-136.5 -119t-90 -186.5t-32.5 -244.5zM635 1526l211 327h219l-309 -327h-121z" />
<glyph unicode="&#xd4;" horiz-adv-x="1443" d="M127 715q0 162 43 298t121 234.5t188.5 153.5t243.5 55t242.5 -54t187.5 -152.5t121 -233.5t43 -297t-43 -298t-122 -234.5t-189.5 -154t-243.5 -55.5t-242.5 54.5t-187.5 153t-120 233.5t-42 297zM287 719q0 -135 33.5 -244.5t92 -188.5t138.5 -121t174 -42q92 0 172 42 t137.5 118.5t90 186.5t32.5 245t-33.5 244.5t-93 188.5t-139.5 121t-174 42q-92 0 -171 -42t-136.5 -119t-90 -186.5t-32.5 -244.5zM381 1516l252 327h172l252 -327h-133l-207 211l-207 -211h-129z" />
<glyph unicode="&#xd5;" horiz-adv-x="1443" d="M127 715q0 162 43 298t121 234.5t188.5 153.5t243.5 55t242.5 -54t187.5 -152.5t121 -233.5t43 -297t-43 -298t-122 -234.5t-189.5 -154t-243.5 -55.5t-242.5 54.5t-187.5 153t-120 233.5t-42 297zM287 719q0 -135 33.5 -244.5t92 -188.5t138.5 -121t174 -42q92 0 172 42 t137.5 118.5t90 186.5t32.5 245t-33.5 244.5t-93 188.5t-139.5 121t-174 42q-92 0 -171 -42t-136.5 -119t-90 -186.5t-32.5 -244.5zM354 1538q0 68 17.5 118t46.5 82.5t66.5 49t78.5 16.5t77 -12t75 -41q37 -29 61.5 -46.5t42 -27.5t30.5 -13t28 -3q33 0 51 32.5t29 104.5 h127q0 -68 -17.5 -118t-46.5 -83t-66.5 -49t-78.5 -16t-77 12t-75 41q-37 29 -61.5 46t-41 27.5t-29.5 13.5t-30 3q-29 0 -49 -28.5t-31 -108.5h-127z" />
<glyph unicode="&#xd6;" horiz-adv-x="1443" d="M127 715q0 162 43 298t121 234.5t188.5 153.5t243.5 55t242.5 -54t187.5 -152.5t121 -233.5t43 -297t-43 -298t-122 -234.5t-189.5 -154t-243.5 -55.5t-242.5 54.5t-187.5 153t-120 233.5t-42 297zM287 719q0 -135 33.5 -244.5t92 -188.5t138.5 -121t174 -42q92 0 172 42 t137.5 118.5t90 186.5t32.5 245t-33.5 244.5t-93 188.5t-139.5 121t-174 42q-92 0 -171 -42t-136.5 -119t-90 -186.5t-32.5 -244.5zM410 1655q0 47 33.5 80.5t80.5 33.5q45 0 78 -33.5t33 -80.5t-33 -80t-78 -33q-47 0 -80.5 32.5t-33.5 80.5zM807 1655q0 47 33 80.5 t80 33.5t79.5 -33.5t32.5 -80.5t-32.5 -80t-79.5 -33t-80 32.5t-33 80.5z" />
<glyph unicode="&#xd7;" horiz-adv-x="1490" d="M41 707l340 247q12 8 18 7q10 -4 4 -21l-61 -164h338v387l-164 -61q-16 -6 -20 4q-2 6 6 18l248 340l247 -340q8 -12 7 -18q-4 -10 -21 -4l-164 61v-387h330l-62 164q-6 16 5 21q6 2 18 -7l340 -247l-340 -248q-12 -8 -18 -6q-10 4 -5 20l62 164h-330v-367l164 62 q16 6 21 -4q2 -6 -7 -19l-247 -340l-248 340q-8 12 -6 19q4 10 20 4l164 -62v367h-338l61 -164q6 -16 -4 -20q-6 -2 -18 6z" />
<glyph unicode="&#xd8;" horiz-adv-x="1443" d="M127 715q0 162 43 298t121 234.5t188.5 153.5t243.5 55q121 0 227 -47l58 127h141l-88 -195q121 -94 188.5 -254.5t67.5 -367.5q0 -162 -43 -298t-122 -234.5t-189.5 -154t-243.5 -55.5q-141 0 -254 60l-64 -139h-141l98 213q-111 98 -171 252.5t-60 351.5zM281 719 q0 -147 38.5 -264t106.5 -195l463 1016q-82 41 -172 41q-94 0 -174 -42t-138.5 -120t-91 -188.5t-32.5 -247.5zM526 172q88 -55 199 -55q94 0 174 42t138.5 119.5t92 188.5t33.5 248q0 160 -45 282.5t-123 200.5z" />
<glyph unicode="&#xd9;" horiz-adv-x="1388" d="M178 582v852h160v-848q0 -463 367 -463q186 0 266 112.5t80 346.5v852h159v-848q0 -299 -127 -454t-387 -155q-258 0 -388 153t-130 452zM347 1822h219l211 -327h-121z" />
<glyph unicode="&#xda;" horiz-adv-x="1388" d="M178 582v852h160v-848q0 -463 367 -463q186 0 266 112.5t80 346.5v852h159v-848q0 -299 -127 -454t-387 -155q-258 0 -388 153t-130 452zM608 1495l211 327h219l-309 -327h-121z" />
<glyph unicode="&#xdb;" horiz-adv-x="1388" d="M178 582v852h160v-848q0 -463 367 -463q186 0 266 112.5t80 346.5v852h159v-848q0 -299 -127 -454t-387 -155q-258 0 -388 153t-130 452zM356 1526l252 327h172l252 -327h-133l-207 211l-207 -211h-129z" />
<glyph unicode="&#xdc;" horiz-adv-x="1388" d="M178 582v852h160v-848q0 -463 367 -463q186 0 266 112.5t80 346.5v852h159v-848q0 -299 -127 -454t-387 -155q-258 0 -388 153t-130 452zM383 1655q0 47 33.5 80.5t80.5 33.5q45 0 78 -33.5t33 -80.5t-33 -80t-78 -33q-47 0 -80.5 32.5t-33.5 80.5zM780 1655 q0 47 33 80.5t80 33.5t79.5 -33.5t32.5 -80.5t-32.5 -80t-79.5 -33t-80 32.5t-33 80.5z" />
<glyph unicode="&#xdd;" horiz-adv-x="1335" d="M96 1434h183l229 -412q43 -78 87 -161t75 -146q31 63 74.5 146t86.5 161l230 412h178l-491 -865v-569h-160v567zM592 1487l211 327h219l-309 -327h-121z" />
<glyph unicode="&#xde;" horiz-adv-x="1265" d="M188 0v1434h160v-258h377q98 0 181 -26t144.5 -79t96.5 -133.5t35 -189.5q0 -106 -36 -189.5t-99.5 -140t-153.5 -85t-197 -28.5h-348v-305h-160zM348 451h350q324 -1 324 290q0 139 -78 214t-225 75h-371v-579z" />
<glyph unicode="&#xdf;" horiz-adv-x="1171" d="M170 -395v1452q0 211 106.5 320.5t284.5 109.5q88 0 160 -27.5t122 -77t77.5 -116t27.5 -142.5q0 -63 -15 -111t-42 -84t-59.5 -60.5t-69.5 -41.5q53 -12 106.5 -38.5t95.5 -70.5t68.5 -106.5t26.5 -148.5q0 -127 -42 -215t-115 -143.5t-169 -80t-205 -24.5h-30v135h37 q178 0 274 74t96 240q0 80 -30.5 136t-81 93t-117 53.5t-137.5 16.5h-41v133h47q119 0 184.5 59t65.5 182q0 106 -64.5 169t-173.5 63q-102 0 -167.5 -68.5t-65.5 -202.5v-1392z" />
<glyph unicode="&#xe0;" horiz-adv-x="1103" d="M106 322q0 90 35 155.5t91.5 107.5t131 61.5t154.5 19.5q82 0 151.5 -17.5t116.5 -44.5v127q0 238 -233 238q-86 0 -156.5 -21.5t-136.5 -60.5l-57 125q72 39 164 62.5t196 23.5q174 0 275.5 -81t101.5 -267v-750h-154v131q-57 -61 -138 -107.5t-197 -46.5 q-63 0 -125 17.5t-111 57.5t-79 105.5t-30 164.5zM226 1546h219l211 -327h-121zM258 332q0 -121 60.5 -175.5t158.5 -54.5q104 0 182 47.5t127 114.5v217q-53 29 -115.5 45.5t-160.5 16.5q-119 0 -185.5 -54.5t-66.5 -156.5z" />
<glyph unicode="&#xe1;" horiz-adv-x="1103" d="M106 322q0 90 35 155.5t91.5 107.5t131 61.5t154.5 19.5q82 0 151.5 -17.5t116.5 -44.5v127q0 238 -233 238q-86 0 -156.5 -21.5t-136.5 -60.5l-57 125q72 39 164 62.5t196 23.5q174 0 275.5 -81t101.5 -267v-750h-154v131q-57 -61 -138 -107.5t-197 -46.5 q-63 0 -125 17.5t-111 57.5t-79 105.5t-30 164.5zM258 332q0 -121 60.5 -175.5t158.5 -54.5q104 0 182 47.5t127 114.5v217q-53 29 -115.5 45.5t-160.5 16.5q-119 0 -185.5 -54.5t-66.5 -156.5zM465 1219l211 327h219l-309 -327h-121z" />
<glyph unicode="&#xe2;" horiz-adv-x="1103" d="M106 322q0 90 35 155.5t91.5 107.5t131 61.5t154.5 19.5q82 0 151.5 -17.5t116.5 -44.5v127q0 238 -233 238q-86 0 -156.5 -21.5t-136.5 -60.5l-57 125q72 39 164 62.5t196 23.5q174 0 275.5 -81t101.5 -267v-750h-154v131q-57 -61 -138 -107.5t-197 -46.5 q-63 0 -125 17.5t-111 57.5t-79 105.5t-30 164.5zM217 1211l252 327h172l252 -327h-133l-207 211l-207 -211h-129zM258 332q0 -121 60.5 -175.5t158.5 -54.5q104 0 182 47.5t127 114.5v217q-53 29 -115.5 45.5t-160.5 16.5q-119 0 -185.5 -54.5t-66.5 -156.5z" />
<glyph unicode="&#xe3;" horiz-adv-x="1103" d="M106 322q0 90 35 155.5t91.5 107.5t131 61.5t154.5 19.5q82 0 151.5 -17.5t116.5 -44.5v127q0 238 -233 238q-86 0 -156.5 -21.5t-136.5 -60.5l-57 125q72 39 164 62.5t196 23.5q174 0 275.5 -81t101.5 -267v-750h-154v131q-57 -61 -138 -107.5t-197 -46.5 q-63 0 -125 17.5t-111 57.5t-79 105.5t-30 164.5zM188 1231q0 68 17.5 118t46.5 82.5t66.5 49t78.5 16.5t77 -12t75 -41q37 -29 61.5 -46.5t42 -27.5t30.5 -13t28 -3q33 0 51 32.5t29 104.5h127q0 -68 -17.5 -118t-46.5 -83t-66.5 -49t-78.5 -16t-77 12t-75 41 q-37 29 -61.5 46t-41 27.5t-29.5 13.5t-30 3q-29 0 -49 -28.5t-31 -108.5h-127zM258 332q0 -121 60.5 -175.5t158.5 -54.5q104 0 182 47.5t127 114.5v217q-53 29 -115.5 45.5t-160.5 16.5q-119 0 -185.5 -54.5t-66.5 -156.5z" />
<glyph unicode="&#xe4;" horiz-adv-x="1103" d="M106 322q0 90 35 155.5t91.5 107.5t131 61.5t154.5 19.5q82 0 151.5 -17.5t116.5 -44.5v127q0 238 -233 238q-86 0 -156.5 -21.5t-136.5 -60.5l-57 125q72 39 164 62.5t196 23.5q174 0 275.5 -81t101.5 -267v-750h-154v131q-57 -61 -138 -107.5t-197 -46.5 q-63 0 -125 17.5t-111 57.5t-79 105.5t-30 164.5zM242 1340q0 47 33.5 80.5t80.5 33.5q45 0 78 -33.5t33 -80.5t-33 -80t-78 -33q-47 0 -80.5 32.5t-33.5 80.5zM258 332q0 -121 60.5 -175.5t158.5 -54.5q104 0 182 47.5t127 114.5v217q-53 29 -115.5 45.5t-160.5 16.5 q-119 0 -185.5 -54.5t-66.5 -156.5zM639 1340q0 47 33 80.5t80 33.5t79.5 -33.5t32.5 -80.5t-32.5 -80t-79.5 -33t-80 32.5t-33 80.5z" />
<glyph unicode="&#xe5;" horiz-adv-x="1103" d="M106 322q0 90 35 155.5t91.5 107.5t131 61.5t154.5 19.5q82 0 151.5 -17.5t116.5 -44.5v127q0 238 -233 238q-86 0 -156.5 -21.5t-136.5 -60.5l-57 125q72 39 164 62.5t196 23.5q174 0 275.5 -81t101.5 -267v-750h-154v131q-57 -61 -138 -107.5t-197 -46.5 q-63 0 -125 17.5t-111 57.5t-79 105.5t-30 164.5zM258 332q0 -121 60.5 -175.5t158.5 -54.5q104 0 182 47.5t127 114.5v217q-53 29 -115.5 45.5t-160.5 16.5q-119 0 -185.5 -54.5t-66.5 -156.5zM315 1466q0 49 17.5 93.5t50.5 76t76 50t96 18.5q51 0 95 -18.5t77 -50 t50.5 -76t17.5 -93.5t-17.5 -93t-50.5 -76.5t-77 -51t-95 -18.5q-53 0 -96 18.5t-76 51t-50.5 76.5t-17.5 93zM412 1466q0 -66 38.5 -106.5t104.5 -40.5t104.5 40.5t38.5 106.5q0 63 -38.5 104.5t-104.5 41.5t-104.5 -41t-38.5 -105z" />
<glyph unicode="&#xe6;" horiz-adv-x="1716" d="M106 322q0 90 32 155.5t87.5 107.5t127 61.5t151.5 19.5q82 0 144.5 -17.5t109.5 -44.5v127q0 121 -50.5 179.5t-168.5 58.5q-86 0 -149.5 -21.5t-129.5 -60.5l-57 125q72 39 156.5 62.5t189.5 23.5q143 0 219 -51.5t94 -143.5q47 92 128 143.5t192 51.5q104 0 183 -39 t131 -109.5t77.5 -168t25.5 -212.5q0 -29 -1 -47t-5 -37h-688q10 -174 81 -274t204 -100q47 0 83 7t68.5 19.5t63.5 31.5t68 44l71 -111q-49 -31 -90 -54t-83 -38.5t-89 -24t-108 -8.5q-90 0 -179.5 42t-152.5 145q-43 -49 -86 -84t-91.5 -58.5t-104.5 -34t-124 -10.5 q-63 0 -122.5 17.5t-105.5 57.5t-74 105.5t-28 164.5zM258 332q0 -121 53.5 -175.5t151.5 -54.5q74 0 159.5 40.5t163.5 142.5q-27 82 -32 198q-25 14 -50.5 24.5t-55.5 19t-66.5 12.5t-85.5 4q-119 0 -178.5 -54.5t-59.5 -156.5zM905 610h551q-4 78 -21.5 143.5t-50 112.5 t-84 73t-120.5 26q-121 0 -190.5 -87t-84.5 -268z" />
<glyph unicode="&#xe7;" horiz-adv-x="1013" d="M113 532q0 150 41 256.5t106.5 175t148.5 101.5t166 33q111 0 194 -36t146 -91l-92 -115q-59 53 -117.5 81t-140.5 28q-63 0 -117.5 -28t-94.5 -82t-62.5 -132t-22.5 -178q0 -199 80 -316.5t223 -117.5q78 0 135.5 30.5t112.5 83.5l92 -98q-68 -70 -148.5 -110 t-195.5 -40l-26 -81q23 14 49 21t63 7q20 0 45 -7t45.5 -24.5t34 -44t13.5 -65.5q0 -49 -19.5 -84t-53.5 -55.5t-78 -29.5t-93 -9q-63 0 -126 19.5t-116 53.5l39 66q86 -55 188 -55q80 0 109 26.5t29 61.5q0 31 -16.5 49t-49.5 18q-59 0 -98 -37l-74 29l47 150 q-76 14 -142.5 55t-116.5 109.5t-78.5 164t-28.5 217.5z" />
<glyph unicode="&#xe8;" horiz-adv-x="1105" d="M113 543q0 129 33.5 231.5t93 174t140.5 110.5t177 39q104 0 185 -39t136.5 -109.5t83 -168t27.5 -212.5q0 -29 -1 -47t-5 -37h-717q10 -174 88 -274t211 -100q94 0 158.5 26.5t138.5 75.5l72 -111q-49 -31 -92 -54t-88 -38.5t-94.5 -24t-110.5 -8.5q-74 0 -152 29 t-140 95.5t-103 175t-41 266.5zM226 1546h219l211 -327h-121zM266 610h580q-10 158 -80 256.5t-211 98.5q-121 0 -197.5 -87t-91.5 -268z" />
<glyph unicode="&#xe9;" horiz-adv-x="1105" d="M113 543q0 129 33.5 231.5t93 174t140.5 110.5t177 39q104 0 185 -39t136.5 -109.5t83 -168t27.5 -212.5q0 -29 -1 -47t-5 -37h-717q10 -174 88 -274t211 -100q94 0 158.5 26.5t138.5 75.5l72 -111q-49 -31 -92 -54t-88 -38.5t-94.5 -24t-110.5 -8.5q-74 0 -152 29 t-140 95.5t-103 175t-41 266.5zM266 610h580q-10 158 -80 256.5t-211 98.5q-121 0 -197.5 -87t-91.5 -268zM465 1219l211 327h219l-309 -327h-121z" />
<glyph unicode="&#xea;" horiz-adv-x="1105" d="M113 543q0 129 33.5 231.5t93 174t140.5 110.5t177 39q104 0 185 -39t136.5 -109.5t83 -168t27.5 -212.5q0 -29 -1 -47t-5 -37h-717q10 -174 88 -274t211 -100q94 0 158.5 26.5t138.5 75.5l72 -111q-49 -31 -92 -54t-88 -38.5t-94.5 -24t-110.5 -8.5q-74 0 -152 29 t-140 95.5t-103 175t-41 266.5zM217 1201l252 327h172l252 -327h-133l-207 211l-207 -211h-129zM266 610h580q-10 158 -80 256.5t-211 98.5q-121 0 -197.5 -87t-91.5 -268z" />
<glyph unicode="&#xeb;" horiz-adv-x="1105" d="M113 543q0 129 33.5 231.5t93 174t140.5 110.5t177 39q104 0 185 -39t136.5 -109.5t83 -168t27.5 -212.5q0 -29 -1 -47t-5 -37h-717q10 -174 88 -274t211 -100q94 0 158.5 26.5t138.5 75.5l72 -111q-49 -31 -92 -54t-88 -38.5t-94.5 -24t-110.5 -8.5q-74 0 -152 29 t-140 95.5t-103 175t-41 266.5zM244 1340q0 47 33.5 80.5t80.5 33.5q45 0 78 -33.5t33 -80.5t-33 -80t-78 -33q-47 0 -80.5 32.5t-33.5 80.5zM266 610h580q-10 158 -80 256.5t-211 98.5q-121 0 -197.5 -87t-91.5 -268zM641 1340q0 47 33 80.5t80 33.5t79.5 -33.5t32.5 -80.5 t-32.5 -80t-79.5 -33t-80 32.5t-33 80.5z" />
<glyph unicode="&#xec;" horiz-adv-x="532" d="M-104 1546h219l211 -327h-121z" />
<glyph unicode="&#xed;" horiz-adv-x="532" d="M192 1219l211 327h219l-309 -327h-121z" />
<glyph unicode="&#xee;" horiz-adv-x="532" d="M-80 1190l252 327h172l252 -327h-133l-207 211l-207 -211h-129z" />
<glyph unicode="&#xef;" horiz-adv-x="532" d="M-53 1330q0 47 33.5 80.5t80.5 33.5q45 0 78 -33.5t33 -80.5t-33 -80t-78 -33q-47 0 -80.5 32.5t-33.5 80.5zM344 1330q0 47 33 80.5t80 33.5t79.5 -33.5t32.5 -80.5t-32.5 -80t-79.5 -33t-80 32.5t-33 80.5z" />
<glyph unicode="&#xf0;" horiz-adv-x="1159" d="M113 481q0 123 35.5 218.5t96 159t137.5 96t161 32.5q139 0 224 -50t140 -132q-61 272 -227 401l-115 -129l-104 88l98 111q-41 16 -87 28.5t-97 16.5v135q150 -10 276 -76l70 76l104 -88l-59 -65q127 -104 204 -276.5t77 -416.5q0 -166 -33 -284.5t-93.5 -196.5 t-147.5 -115t-198 -37q-92 0 -176 33t-147.5 96.5t-101 157.5t-37.5 217zM268 485q0 -96 23.5 -165.5t65.5 -116.5t99.5 -69.5t123.5 -22.5t123 22.5t99 69.5t66.5 116.5t24.5 165.5q0 193 -92 281t-236 88q-137 0 -217 -94t-80 -275z" />
<glyph unicode="&#xf1;" horiz-adv-x="1161" d="M170 0v1075h154v-131q47 68 120.5 111t176.5 43q86 0 155.5 -25.5t118.5 -80t75.5 -137.5t26.5 -200v-655h-153v629q0 174 -62.5 255t-191.5 81q-113 0 -189.5 -80t-76.5 -256v-629h-154zM208 1231q0 68 17.5 118t46.5 82.5t66.5 49t78.5 16.5t77 -12t75 -41 q37 -29 61.5 -46.5t42 -27.5t30.5 -13t28 -3q33 0 51 32.5t29 104.5h127q0 -68 -17.5 -118t-46.5 -83t-66.5 -49t-78.5 -16t-77 12t-75 41q-37 29 -61.5 46t-41 27.5t-29.5 13.5t-30 3q-29 0 -49 -28.5t-31 -108.5h-127z" />
<glyph unicode="&#xf2;" horiz-adv-x="1159" d="M113 537q0 137 36.5 241.5t100 175t149.5 107.5t185 37q98 0 183 -35t146.5 -104.5t97.5 -173t36 -240.5t-37 -242.5t-100.5 -178.5t-149.5 -110t-185 -37q-98 0 -183 36t-146.5 106.5t-97 175t-35.5 242.5zM240 1546h219l211 -327h-121zM268 541q0 -213 85 -321.5 t227 -108.5q141 0 227 108.5t86 321.5t-86 318.5t-227 105.5t-226.5 -105.5t-85.5 -318.5z" />
<glyph unicode="&#xf3;" horiz-adv-x="1159" d="M113 537q0 137 36.5 241.5t100 175t149.5 107.5t185 37q98 0 183 -35t146.5 -104.5t97.5 -173t36 -240.5t-37 -242.5t-100.5 -178.5t-149.5 -110t-185 -37q-98 0 -183 36t-146.5 106.5t-97 175t-35.5 242.5zM268 541q0 -213 85 -321.5t227 -108.5q141 0 227 108.5 t86 321.5t-86 318.5t-227 105.5t-226.5 -105.5t-85.5 -318.5zM481 1219l211 327h219l-309 -327h-121z" />
<glyph unicode="&#xf4;" horiz-adv-x="1159" d="M113 537q0 137 36.5 241.5t100 175t149.5 107.5t185 37q98 0 183 -35t146.5 -104.5t97.5 -173t36 -240.5t-37 -242.5t-100.5 -178.5t-149.5 -110t-185 -37q-98 0 -183 36t-146.5 106.5t-97 175t-35.5 242.5zM240 1201l252 327h172l252 -327h-133l-207 211l-207 -211h-129 zM268 541q0 -213 85 -321.5t227 -108.5q141 0 227 108.5t86 321.5t-86 318.5t-227 105.5t-226.5 -105.5t-85.5 -318.5z" />
<glyph unicode="&#xf5;" horiz-adv-x="1159" d="M113 537q0 137 36.5 241.5t100 175t149.5 107.5t185 37q98 0 183 -35t146.5 -104.5t97.5 -173t36 -240.5t-37 -242.5t-100.5 -178.5t-149.5 -110t-185 -37q-98 0 -183 36t-146.5 106.5t-97 175t-35.5 242.5zM213 1231q0 68 17.5 118t46.5 82.5t66.5 49t78.5 16.5t77 -12 t75 -41q37 -29 61.5 -46.5t42 -27.5t30.5 -13t28 -3q33 0 51 32.5t29 104.5h127q0 -68 -17.5 -118t-46.5 -83t-66.5 -49t-78.5 -16t-77 12t-75 41q-37 29 -61.5 46t-41 27.5t-29.5 13.5t-30 3q-29 0 -49 -28.5t-31 -108.5h-127zM268 541q0 -213 85 -321.5t227 -108.5 q141 0 227 108.5t86 321.5t-86 318.5t-227 105.5t-226.5 -105.5t-85.5 -318.5z" />
<glyph unicode="&#xf6;" horiz-adv-x="1159" d="M113 537q0 137 36.5 241.5t100 175t149.5 107.5t185 37q98 0 183 -35t146.5 -104.5t97.5 -173t36 -240.5t-37 -242.5t-100.5 -178.5t-149.5 -110t-185 -37q-98 0 -183 36t-146.5 106.5t-97 175t-35.5 242.5zM267 1330q0 47 33.5 80.5t80.5 33.5q45 0 78 -33.5t33 -80.5 t-33 -80t-78 -33q-47 0 -80.5 32.5t-33.5 80.5zM268 541q0 -213 85 -321.5t227 -108.5q141 0 227 108.5t86 321.5t-86 318.5t-227 105.5t-226.5 -105.5t-85.5 -318.5zM664 1330q0 47 33 80.5t80 33.5t79.5 -33.5t32.5 -80.5t-32.5 -80t-79.5 -33t-80 32.5t-33 80.5z" />
<glyph unicode="&#xf7;" horiz-adv-x="1490" d="M41 707l340 247q12 8 18 7q10 -4 4 -21l-61 -164h338v387l-164 -61q-16 -6 -20 4q-2 6 6 18l248 340l247 -340q8 -12 7 -18q-4 -10 -21 -4l-164 61v-387h330l-62 164q-6 16 5 21q6 2 18 -7l340 -247l-340 -248q-12 -8 -18 -6q-10 4 -5 20l62 164h-330v-367l164 62 q16 6 21 -4q2 -6 -7 -19l-247 -340l-248 340q-8 12 -6 19q4 10 20 4l164 -62v367h-338l61 -164q6 -16 -4 -20q-6 -2 -18 6z" />
<glyph unicode="&#xf8;" horiz-adv-x="1159" d="M113 537q0 137 36.5 241.5t100 175t149.5 107.5t185 37q96 0 182 -35l55 115h135l-86 -179q82 -68 129.5 -181t47.5 -273q0 -137 -37 -242.5t-100.5 -178.5t-149.5 -110t-185 -37q-98 0 -176 33l-53 -112h-135l84 176q-86 68 -134 184.5t-48 278.5zM264 541 q0 -113 24.5 -196t69.5 -138l351 735q-55 27 -129 27q-141 0 -228.5 -106.5t-87.5 -321.5zM457 131q55 -25 123 -25q141 0 229 110t88 325q0 109 -23.5 189.5t-66.5 133.5z" />
<glyph unicode="&#xf9;" horiz-adv-x="1161" d="M164 420v655h153v-629q0 -174 62.5 -254.5t191.5 -80.5q113 0 190 79.5t77 255.5v629h153v-1075h-153v131q-47 -68 -121 -111t-176 -43q-86 0 -156 26t-119 80t-75.5 137t-26.5 200zM224 1546h219l211 -327h-121z" />
<glyph unicode="&#xfa;" horiz-adv-x="1161" d="M164 420v655h153v-629q0 -174 62.5 -254.5t191.5 -80.5q113 0 190 79.5t77 255.5v629h153v-1075h-153v131q-47 -68 -121 -111t-176 -43q-86 0 -156 26t-119 80t-75.5 137t-26.5 200zM493 1219l211 327h219l-309 -327h-121z" />
<glyph unicode="&#xfb;" horiz-adv-x="1161" d="M164 420v655h153v-629q0 -174 62.5 -254.5t191.5 -80.5q113 0 190 79.5t77 255.5v629h153v-1075h-153v131q-47 -68 -121 -111t-176 -43q-86 0 -156 26t-119 80t-75.5 137t-26.5 200zM242 1219l252 327h172l252 -327h-133l-207 211l-207 -211h-129z" />
<glyph unicode="&#xfc;" horiz-adv-x="1161" d="M164 420v655h153v-629q0 -174 62.5 -254.5t191.5 -80.5q113 0 190 79.5t77 255.5v629h153v-1075h-153v131q-47 -68 -121 -111t-176 -43q-86 0 -156 26t-119 80t-75.5 137t-26.5 200zM269 1348q0 47 33.5 80.5t80.5 33.5q45 0 78 -33.5t33 -80.5t-33 -80t-78 -33 q-47 0 -80.5 32.5t-33.5 80.5zM666 1348q0 47 33 80.5t80 33.5t79.5 -33.5t32.5 -80.5t-32.5 -80t-79.5 -33t-80 32.5t-33 80.5z" />
<glyph unicode="&#xfd;" horiz-adv-x="1087" d="M82 1075h162l262 -780l37 -111l37 109l264 782h162l-535 -1454h-154l148 391zM460 1201l211 327h219l-309 -327h-121z" />
<glyph unicode="&#xfe;" horiz-adv-x="1144" d="M170 -395v1802l154 86v-549q57 61 135 107.5t188 46.5q80 0 150.5 -32t123 -97.5t82 -169t29.5 -244.5q0 -143 -31.5 -250.5t-87 -180.5t-129 -110t-157.5 -37q-102 0 -174 39t-129 105v-430zM324 272q45 -68 119.5 -114.5t170.5 -46.5q135 0 201 112.5t66 329.5 q0 205 -72 308.5t-201 103.5q-86 0 -156.5 -42t-127.5 -114v-537z" />
<glyph unicode="&#xff;" horiz-adv-x="1087" d="M82 1075h162l262 -780l37 -111l37 109l264 782h162l-535 -1454h-154l148 391zM234 1330q0 47 33.5 80.5t80.5 33.5q45 0 78 -33.5t33 -80.5t-33 -80t-78 -33q-47 0 -80.5 32.5t-33.5 80.5zM631 1330q0 47 33 80.5t80 33.5t79.5 -33.5t32.5 -80.5t-32.5 -80t-79.5 -33 t-80 32.5t-33 80.5z" />
<glyph unicode="&#x152;" horiz-adv-x="2136" d="M127 717q0 162 42 298t119 234.5t185.5 152.5t241.5 54q80 0 145.5 -20.5t118.5 -54t94 -81t72 -98.5v232h844v-146h-701v-450h404v-146h-404v-547h731v-145h-874v238q-33 -55 -72 -103.5t-90 -83.5t-116.5 -54.5t-151.5 -19.5q-133 0 -241.5 54.5t-185.5 153t-119 234.5 t-42 298zM287 719q0 -135 32.5 -244.5t90 -188.5t136.5 -121t173 -42q92 0 171 42t135 118.5t88 186.5t32 245t-33 244.5t-91 188.5t-137 121t-173 42q-92 0 -170 -42t-134.5 -119t-88 -186.5t-31.5 -244.5z" />
<glyph unicode="&#x153;" horiz-adv-x="1835" d="M113 537q0 137 36.5 241.5t99 175t146.5 107.5t178 37q70 0 129.5 -20.5t105.5 -55.5t80 -81t54 -97q43 104 133 179t221 75q100 0 178 -39t132.5 -109.5t83 -168t28.5 -212.5q0 -29 -1 -47t-5 -37h-696q10 -174 86 -274t203 -100q88 0 150.5 26.5t135.5 75.5l72 -111 q-96 -61 -178 -93t-197 -32q-59 0 -114.5 20.5t-100.5 55.5t-80 81t-55 99q-23 -53 -56.5 -99t-79.5 -81t-105.5 -55.5t-131.5 -20.5q-92 0 -175 36t-144.5 106.5t-97 175t-35.5 242.5zM268 541q0 -213 84 -321.5t217 -108.5t218 108.5t85 321.5t-85 318.5t-218 105.5 t-217 -105.5t-84 -318.5zM1016 610h559q-4 78 -23.5 143.5t-54.5 112.5t-85 73t-118 26q-115 0 -189.5 -87t-88.5 -268z" />
<glyph unicode="&#x178;" horiz-adv-x="1335" d="M96 1434h183l229 -412q43 -78 87 -161t75 -146q31 63 74.5 146t86.5 161l230 412h178l-491 -865v-569h-160v567zM355 1635q0 47 33.5 80.5t80.5 33.5q45 0 78 -33.5t33 -80.5t-33 -80t-78 -33q-47 0 -80.5 32.5t-33.5 80.5zM752 1635q0 47 33 80.5t80 33.5t79.5 -33.5 t32.5 -80.5t-32.5 -80t-79.5 -33t-80 32.5t-33 80.5z" />
<glyph unicode="&#x2c6;" d="M174 1219l252 327h172l252 -327h-133l-207 211l-207 -211h-129z" />
<glyph unicode="&#x2dc;" d="M147 1231q0 68 17.5 118t46.5 82.5t66.5 49t78.5 16.5t77 -12t75 -41q37 -29 61.5 -46.5t42 -27.5t30.5 -13t28 -3q33 0 51 32.5t29 104.5h127q0 -68 -17.5 -118t-46.5 -83t-66.5 -49t-78.5 -16t-77 12t-75 41q-37 29 -61.5 46t-41 27.5t-29.5 13.5t-30 3 q-29 0 -49 -28.5t-31 -108.5h-127z" />
<glyph unicode="&#x2000;" horiz-adv-x="926" />
<glyph unicode="&#x2001;" horiz-adv-x="1853" />
<glyph unicode="&#x2002;" horiz-adv-x="926" />
<glyph unicode="&#x2003;" horiz-adv-x="1853" />
<glyph unicode="&#x2004;" horiz-adv-x="617" />
<glyph unicode="&#x2005;" horiz-adv-x="463" />
<glyph unicode="&#x2006;" horiz-adv-x="308" />
<glyph unicode="&#x2007;" horiz-adv-x="308" />
<glyph unicode="&#x2008;" horiz-adv-x="231" />
<glyph unicode="&#x2009;" horiz-adv-x="370" />
<glyph unicode="&#x200a;" horiz-adv-x="102" />
<glyph unicode="&#x2010;" horiz-adv-x="659" d="M104 674v149h451v-149h-451z" />
<glyph unicode="&#x2011;" horiz-adv-x="659" d="M104 674v149h451v-149h-451z" />
<glyph unicode="&#x2012;" horiz-adv-x="659" d="M104 674v149h451v-149h-451z" />
<glyph unicode="&#x2013;" horiz-adv-x="864" d="M104 676v145h656v-145h-656z" />
<glyph unicode="&#x2014;" horiz-adv-x="1187" d="M104 676v145h979v-145h-979z" />
<glyph unicode="&#x2018;" horiz-adv-x="516" d="M123 977l133 457h106l-30 -457h-209z" />
<glyph unicode="&#x2019;" horiz-adv-x="516" d="M154 977l30 457h209l-133 -457h-106z" />
<glyph unicode="&#x201a;" horiz-adv-x="516" d="M154 -221l30 457h209l-133 -457h-106z" />
<glyph unicode="&#x201c;" horiz-adv-x="960" d="M123 977l133 457h106l-30 -457h-209zM567 977l133 457h107l-31 -457h-209z" />
<glyph unicode="&#x201d;" horiz-adv-x="960" d="M154 977l30 457h209l-133 -457h-106zM598 977l31 457h209l-133 -457h-107z" />
<glyph unicode="&#x201e;" horiz-adv-x="960" d="M154 -221l30 457h209l-133 -457h-106zM598 -221l31 457h209l-133 -457h-107z" />
<glyph unicode="&#x2022;" horiz-adv-x="765" d="M164 750q0 45 17.5 86t47 71.5t69.5 48t85 17.5t85 -17.5t69.5 -48t47 -71.5t17.5 -86t-17.5 -85t-47 -70t-69.5 -47.5t-85 -17.5t-85 17.5t-69.5 47.5t-47 70t-17.5 85z" />
<glyph unicode="&#x2026;" horiz-adv-x="1474" d="M115 109q0 53 39 94t92 41t92 -41t39 -94t-39 -92.5t-92 -39.5t-92 39t-39 93zM606 109q0 53 39 94t92 41t92 -41t39 -94t-38.5 -92.5t-92.5 -39.5q-53 0 -92 39t-39 93zM1098 109q0 53 39 94t92 41t92 -41t39 -94t-39 -92.5t-92 -39.5t-92 39t-39 93z" />
<glyph unicode="&#x202f;" horiz-adv-x="370" />
<glyph unicode="&#x2039;" horiz-adv-x="743" d="M61 537l416 538h174l-415 -536l415 -539h-174z" />
<glyph unicode="&#x203a;" horiz-adv-x="743" d="M92 0l416 537l-416 538h174l416 -536l-416 -539h-174z" />
<glyph unicode="&#x205f;" horiz-adv-x="463" />
<glyph unicode="&#x2122;" horiz-adv-x="1560" d="M45 1348v86h573v-86h-237v-732h-98v732h-238zM762 616v818h106l193 -490q16 -37 31.5 -80t23.5 -69q8 27 23.5 69.5t29.5 79.5l195 490h104v-818h-92v543v88q-6 -25 -20.5 -63.5t-28.5 -73.5l-215 -516l-209 516q-14 33 -28.5 73t-20.5 64v-88v-543h-92z" />
<glyph unicode="&#x25fc;" horiz-adv-x="1075" d="M0 0v1075h1075v-1075h-1075z" />
</font>
</defs>
</svg>
