<?xml version="1.0" standalone="no"?>
<!DOCTYPE svg PUBLIC "-//W3C//DTD SVG 1.1//EN" "http://www.w3.org/Graphics/SVG/1.1/DTD/svg11.dtd" >
<svg xmlns="http://www.w3.org/2000/svg" xmlns:xlink="http://www.w3.org/1999/xlink" version="1.1">
<metadata></metadata>
<defs>
<font id="biondi_sanslight" horiz-adv-x="1200" >
<font-face units-per-em="2048" ascent="1434" descent="-614" />
<missing-glyph horiz-adv-x="634" />
<glyph unicode="&#x28;C&#x29;" horiz-adv-x="1576" d="M104 721q0 159 55 303t148 246.5t219.5 162.5t264.5 60q182 0 338 -101.5t248.5 -279.5t92.5 -391q0 -151 -51 -288.5t-139 -239t-216 -162t-273 -60.5q-199 0 -357.5 103t-244 273.5t-85.5 373.5zM201 721q0 -175 73.5 -326.5t210 -244.5t306.5 -93q167 0 302.5 93 t209 244.5t73.5 326.5q0 184 -73.5 338t-208.5 246t-303 92q-167 0 -303 -92t-211.5 -246.5t-75.5 -337.5zM477 719q0 62 20 123t57.5 114.5t101.5 87t143 33.5q95 0 151.5 -28t102.5 -88l-47 -64q-42 52 -86.5 74t-118.5 22q-77 0 -132.5 -43.5t-79.5 -104t-24 -126.5 q0 -124 62 -199.5t176 -75.5q135 0 190 97l54 -58q-69 -121 -250 -121q-149 0 -234.5 98.5t-85.5 258.5z" />
<glyph unicode="&#x28;R&#x29;" horiz-adv-x="1591" d="M104 725q0 159 55.5 302t149 244.5t221.5 161.5t267 60q184 0 342 -101t252 -278.5t94 -388.5q0 -149 -51.5 -286.5t-141 -241t-219 -165t-276.5 -61.5q-151 0 -282 61.5t-220.5 165t-140 240.5t-50.5 287zM199 725q0 -130 44 -251.5t121 -214t190 -148.5t243 -56 q129 0 241.5 56t189 148.5t120 214t43.5 251.5q0 182 -75.5 335t-212.5 244t-306 91q-128 0 -240 -53.5t-190 -144t-123 -213.5t-45 -259zM545 358v758h313q252 0 252 -223q0 -218 -217 -221l213 -314h-107l-194 308h-176v-308h-84zM629 743h239q164 0 164 148 q0 75 -42.5 109t-127.5 34h-233v-291z" />
<glyph horiz-adv-x="0" />
<glyph horiz-adv-x="682" />
<glyph horiz-adv-x="634" />
<glyph unicode=" "  horiz-adv-x="634" />
<glyph unicode="&#x09;" horiz-adv-x="634" />
<glyph unicode="&#xa0;" horiz-adv-x="634" />
<glyph unicode="!" horiz-adv-x="487" d="M152 66q0 75 92 75q90 0 90 -75q0 -80 -90 -80q-92 0 -92 80zM160 1368q0 59 18.5 88t65.5 29q49 0 65.5 -28t16.5 -87q0 -119 -1 -215t-5 -211.5t-6 -164.5t-9.5 -209t-9.5 -210h-102q-4 100 -14 310t-14.5 363t-4.5 335z" />
<glyph unicode="&#x22;" horiz-adv-x="782" d="M104 1468h117l-22 -532h-68zM555 1468h117l-23 -532h-67z" />
<glyph unicode="#" horiz-adv-x="1079" d="M51 461l15 88h204l82 340h-223l14 90h230l114 489h91l-115 -489h274l115 489h96l-114 -489h194l-14 -90h-201l-82 -340h217l-12 -88h-223l-109 -461h-96l108 461h-272l-108 -461h-93l109 461h-201zM362 549h273l82 340h-275z" />
<glyph unicode="$" horiz-adv-x="1290" d="M80 328l86 59q209 -200 463 -203v518q-211 15 -326 107t-115 240q0 145 117.5 240.5t323.5 101.5v77h76v-77q165 -3 289.5 -66t197.5 -166l-76 -63q-70 95 -168.5 144t-242.5 52v-501q269 -24 389 -104t120 -257q0 -86 -42 -153.5t-114 -108.5t-161.5 -62t-191.5 -22v-84 h-76v84q-297 3 -549 244zM291 1049q0 -62 29 -110t79 -76t107 -43t123 -19v489q-163 -4 -250.5 -68.5t-87.5 -172.5zM705 184q86 1 158 16t127.5 44.5t86.5 77.5t31 110q0 133 -98.5 193.5t-304.5 68.5v-510z" />
<glyph unicode="%" horiz-adv-x="1691" d="M104 1122q0 103 38 189t120 142t195 56q90 0 159.5 -31.5t110.5 -86.5t61.5 -122t20.5 -143q0 -103 -38.5 -188t-120 -139t-193.5 -54q-90 0 -159 30t-110.5 82.5t-62.5 119.5t-21 145zM197 1122q0 -125 65 -206.5t195 -81.5q84 0 144.5 42.5t88 107t27.5 142.5 q0 124 -65.5 209.5t-194.5 85.5q-85 0 -145.5 -44t-87.5 -110t-27 -145zM221 0l1114 1468h117l-1112 -1468h-119zM883 338q0 76 22.5 144.5t64.5 123.5t110.5 87t154.5 32q90 0 159.5 -31.5t110.5 -86.5t61.5 -122t20.5 -143q0 -103 -38.5 -188t-120 -139t-193.5 -54 q-90 0 -159 30t-110.5 82.5t-62 119.5t-20.5 145zM975 338q0 -125 65 -207t195 -82q84 0 144.5 42.5t88 107.5t27.5 143q0 124 -65.5 209.5t-194.5 85.5q-85 0 -145.5 -44t-87.5 -110t-27 -145z" />
<glyph unicode="&#x26;" horiz-adv-x="1619" d="M90 389q0 140 71 238.5t210 132.5q-96 75 -141.5 155.5t-45.5 182.5q0 170 133 282.5t345 112.5q248 0 411 -199l-94 -90q-132 166 -330 166q-142 0 -241 -73.5t-99 -200.5q0 -88 38 -149.5t128 -125.5l619 -442q138 197 141 487h131q-2 -142 -44.5 -292t-125.5 -271 l428 -303h-197l-305 215q-226 -250 -510 -250q-230 0 -376 118.5t-146 305.5zM219 393q0 -132 110 -220.5t277 -88.5q217 0 410 211l-555 395q-111 -15 -176.5 -93.5t-65.5 -203.5z" />
<glyph unicode="'" horiz-adv-x="327" d="M104 1468h117l-22 -532h-68z" />
<glyph unicode="(" horiz-adv-x="849" d="M238 662q0 176 26 328t69.5 261.5t104.5 197.5t125.5 143.5t138.5 93.5l72 -82q-193 -92 -305.5 -329.5t-112.5 -612.5q0 -363 115 -605t303 -333l-74 -78q-73 36 -138 92t-125 144t-103.5 197.5t-69.5 259.5t-26 323z" />
<glyph unicode=")" horiz-adv-x="849" d="M76 -276q187 91 302.5 333.5t115.5 604.5q0 369 -114.5 608t-303.5 334l71 82q72 -37 136 -92.5t125.5 -143.5t105 -198t70 -262t26.5 -328q0 -215 -39 -393t-106.5 -299.5t-147 -201.5t-170.5 -124z" />
<glyph unicode="*" horiz-adv-x="1021" d="M70 956l362 84l-305 215l53 68l293 -229l-8 374h86l-10 -374l284 243l56 -67l-295 -230l366 -67l-20 -86l-363 88l176 -328l-77 -37l-160 334l-146 -342l-75 37l159 336l-356 -105z" />
<glyph unicode="+" d="M154 700v103h395v393h102v-393h396v-103h-396v-397h-102v397h-395z" />
<glyph unicode="," horiz-adv-x="407" d="M121 82q0 72 88 72q90 0 90 -82q0 -64 -35.5 -132t-93.5 -110l-49 35q66 59 72 145q-72 0 -72 72z" />
<glyph unicode="-" horiz-adv-x="798" d="M61 514v94h672v-94h-672z" />
<glyph unicode="." horiz-adv-x="395" d="M106 66q0 75 93 75q90 0 90 -75q0 -80 -90 -80q-93 0 -93 80z" />
<glyph unicode="/" horiz-adv-x="800" d="M12 -51l662 1571h114l-661 -1571h-115z" />
<glyph unicode="0" horiz-adv-x="1622" d="M119 717q0 121 27 233t83.5 211t137 172t195 115.5t249.5 42.5q142 0 259 -42t196 -113.5t132.5 -170t78 -208t24.5 -230.5q0 -153 -44.5 -289t-128.5 -242t-217.5 -168.5t-299.5 -62.5q-142 0 -258.5 39.5t-196 109t-133.5 165t-79 205.5t-25 233zM248 717 q0 -103 20 -194t63.5 -171.5t108.5 -138.5t160 -91.5t211 -33.5q137 0 246 53t176.5 142.5t103 203t35.5 240.5q0 100 -20 192t-63.5 174.5t-108 143t-159 96t-210.5 35.5q-139 0 -249 -55t-177 -147.5t-102 -207t-35 -241.5z" />
<glyph unicode="1" horiz-adv-x="634" d="M23 1239l370 229h86v-1468h-131v1317l-272 -172z" />
<glyph unicode="2" horiz-adv-x="1456" d="M88 117q453 218 748 446q68 53 113.5 95t95 101.5t75 127t25.5 141.5t-25 133.5t-66 97t-96.5 63t-113 36t-119.5 10.5q-149 0 -286.5 -70t-207.5 -198l-96 82q78 149 244.5 230t347.5 81q83 0 159 -14.5t148 -49t125 -85.5t85 -130t32 -178q0 -90 -28.5 -171.5 t-82.5 -151.5t-109.5 -123t-131.5 -113q-240 -187 -605 -360h1039v-117h-1219z" />
<glyph unicode="3" horiz-adv-x="1439" d="M94 1190q104 148 278 225.5t373 77.5q84 0 160.5 -15t146 -48.5t120 -82.5t80.5 -122.5t30 -163.5q0 -122 -71.5 -211t-206.5 -111q161 -15 247 -102.5t86 -243.5q0 -189 -162.5 -308.5t-422.5 -119.5q-398 0 -635 203l73 111q102 -100 252 -147.5t306 -47.5 q85 0 162.5 19t141.5 56.5t102 100.5t38 143q0 70 -26 121.5t-68.5 82.5t-108 49.5t-133.5 25t-156 6.5h-192v103h188q85 0 148 5.5t123 22.5t98 45.5t61 76.5t23 114q0 65 -23 118t-62 88t-92.5 58.5t-111 34t-121.5 10.5q-168 0 -310 -64.5t-234 -193.5z" />
<glyph unicode="4" horiz-adv-x="1441" d="M27 412l1034 1056h121v-1030h219v-114h-219v-324h-127v324h-987zM215 438h840v852z" />
<glyph unicode="5" horiz-adv-x="1380" d="M92 219l90 98q204 -233 514 -233q228 0 346.5 108.5t118.5 299.5q0 82 -23 149t-64 113t-97.5 77t-121.5 45.5t-138 14.5q-159 0 -257 -43t-165 -117q-20 4 -94 23l24 714h985v-106h-860l-20 -496q62 58 167.5 96.5t254.5 38.5q107 0 200.5 -28.5t170.5 -87t122 -160 t45 -236.5q0 -74 -19.5 -146t-65.5 -141t-113 -121t-171 -84t-231 -32q-363 0 -598 254z" />
<glyph unicode="6" horiz-adv-x="1439" d="M106 719q0 165 42.5 304.5t125 245t213.5 165t297 59.5q164 0 286.5 -45.5t225.5 -163.5l-77 -110q-86 106 -191.5 151t-243.5 45q-120 0 -215.5 -38.5t-159 -105t-105 -161t-59.5 -200.5t-18 -230q0 -8 1 -23t1 -22q72 152 212 243t341 91q118 0 217 -25.5t178.5 -79 t124 -144.5t44.5 -212q0 -112 -38.5 -200.5t-98.5 -143t-141 -90.5t-159 -50t-159 -14q-139 0 -249 39.5t-183 107.5t-121.5 164.5t-69.5 206t-21 236.5zM256 471q31 -169 161 -277t333 -108q71 0 136 11.5t128 40t109 71t74 109t28 149.5q0 91 -34.5 158.5t-98.5 108 t-148.5 60t-189.5 19.5q-173 0 -298 -92t-200 -250z" />
<glyph unicode="7" horiz-adv-x="1226" d="M74 1348v120h1102l26 -86q-251 -261 -485.5 -642.5t-370.5 -739.5h-147q141 356 368.5 727t464.5 621h-958z" />
<glyph unicode="8" horiz-adv-x="1402" d="M74 414q0 183 103 273.5t325 94.5q-172 12 -263.5 95t-91.5 225q0 86 29 153.5t79 111.5t121.5 73t151 41t172.5 12t173 -12t151.5 -41t121.5 -73t79.5 -111.5t29.5 -153.5q0 -141 -91.5 -223.5t-264.5 -94.5q222 -4 325 -95t103 -275q0 -212 -165 -330.5t-462 -118.5 t-461.5 118t-164.5 331zM213 420q0 -157 126 -246.5t361 -89.5t362.5 89.5t127.5 246.5q0 161 -110.5 233t-379.5 72q-268 0 -377.5 -72t-109.5 -233zM264 1087q0 -67 27 -116.5t68 -78t101.5 -45.5t116.5 -22.5t123 -5.5q68 0 124 5.5t116.5 22.5t102.5 45.5t69 78 t27 116.5q0 289 -439 289q-436 0 -436 -289z" />
<glyph unicode="9" horiz-adv-x="1441" d="M94 991q0 100 37.5 184.5t98.5 142t140.5 98t162.5 59t165 18.5q635 0 635 -754q0 -132 -25.5 -248t-79.5 -213t-132 -166.5t-189 -108t-245 -38.5q-171 0 -299.5 42.5t-210.5 103.5l61 102q70 -50 185 -88.5t264 -38.5q122 0 218 39t157.5 105t101.5 159.5t56.5 195.5 t16.5 220v39q-36 -66 -87.5 -121.5t-124 -103t-170.5 -74.5t-212 -27q-79 0 -153.5 17t-142.5 54t-118 91t-80 134t-30 177zM225 985q0 -90 34 -160.5t93 -113t134.5 -64.5t162.5 -22q107 0 200.5 30t159.5 80t111 109.5t68 124.5q-26 184 -145.5 291.5t-340.5 107.5 q-128 0 -235 -43.5t-174.5 -132t-67.5 -207.5z" />
<glyph unicode=":" horiz-adv-x="512" d="M166 66q0 79 90 79t90 -79q0 -80 -90 -80t-90 80zM166 762q0 78 90 78t90 -78t-90 -78t-90 78z" />
<glyph unicode=";" horiz-adv-x="528" d="M180 82q0 72 88 72q90 0 90 -82q0 -64 -35.5 -132t-93.5 -110l-49 35q66 59 72 145q-72 0 -72 72zM180 762q0 76 90 76t90 -76q0 -78 -90 -78t-90 78z" />
<glyph unicode="&#x3c;" d="M154 698v103l893 346v-113l-750 -284l750 -287v-111z" />
<glyph unicode="=" d="M154 504v102h893v-102h-893zM154 897v102h893v-102h-893z" />
<glyph unicode="&#x3e;" d="M154 352v111l747 287l-747 284v113l893 -346v-103z" />
<glyph unicode="?" horiz-adv-x="1210" d="M74 1219q75 144 208.5 209t325.5 65q84 0 158.5 -13t145.5 -44.5t122 -80t82 -124.5t31 -172q0 -84 -26 -149.5t-77 -111.5t-108 -76.5t-137 -59.5q-47 -17 -82.5 -35.5t-59.5 -34.5t-40.5 -39t-25 -40.5t-12.5 -46.5t-5 -49t-1 -57h-104q0 55 6 97.5t23 85t46 75t76 62 t113 53.5q72 25 119.5 49t92.5 61.5t67 91t22 124.5q0 74 -25 131.5t-65.5 93t-97 59t-115 32.5t-123.5 9q-153 0 -267 -52.5t-183 -178.5zM434 63q0 78 90 78t90 -78q0 -75 -90 -75t-90 75z" />
<glyph unicode="@" horiz-adv-x="1785" d="M98 563q0 187 63 336.5t172.5 243t251 143t304.5 49.5q92 0 184 -16.5t182 -50t166.5 -88.5t135.5 -126t92.5 -170t33.5 -214q0 -217 -80 -349.5t-235 -132.5q-161 0 -201 152q-43 -67 -117.5 -109.5t-162.5 -42.5q-79 0 -148.5 24t-123.5 70.5t-85.5 122.5t-31.5 173 q0 177 105.5 281t264.5 104q175 0 273 -129l24 110l62 -10v-520q0 -66 38.5 -100.5t100.5 -34.5q112 0 164.5 102t52.5 278q0 120 -42 218.5t-111 163.5t-160.5 110t-187 64.5t-193.5 19.5q-112 0 -212 -25.5t-186 -79t-148.5 -131.5t-98 -188.5t-35.5 -243.5 q0 -162 55.5 -288.5t154 -206.5t229 -121t284.5 -41q203 0 330 61l55 -90q-144 -76 -391 -76q-93 0 -180.5 13.5t-170.5 42.5t-154.5 72.5t-131.5 105.5t-102 138t-65.5 174.5t-23.5 211.5zM604 575q0 -149 81.5 -222.5t205.5 -73.5q81 0 144 38.5t98 104.5v317 q-85 129 -250 129q-121 0 -200 -76t-79 -217z" />
<glyph unicode="A" horiz-adv-x="1773" d="M29 0l790 1468h123l801 -1468h-150l-237 436h-948l-232 -436h-147zM461 541h846l-426 782z" />
<glyph unicode="B" horiz-adv-x="1523" d="M156 0v1468h688q243 0 372.5 -99t129.5 -273q0 -130 -72 -220t-215 -108q169 -11 273 -98.5t104 -257.5q0 -185 -132 -298.5t-368 -113.5h-780zM285 121h649q180 0 277.5 83.5t97.5 215.5q0 58 -17 103t-41 74.5t-69 50t-80.5 30.5t-98 15t-99 6t-103.5 1h-516v-579z M285 805h585q349 0 349 278q0 121 -88 193t-267 72h-579v-543z" />
<glyph unicode="C" horiz-adv-x="1667" d="M106 733q0 132 35 247.5t106.5 210t174 161.5t243 104t308.5 37q210 0 371.5 -69.5t228.5 -166.5l-82 -100q-68 99 -206 157t-324 58q-172 0 -309 -47.5t-227 -132.5t-137.5 -202t-47.5 -257q0 -149 53 -271t146 -203t220.5 -125t276.5 -44q183 0 324 59.5t221 169.5 l84 -94q-84 -113 -251 -185.5t-378 -72.5q-174 0 -325 51.5t-263.5 147.5t-177 242t-64.5 325z" />
<glyph unicode="D" horiz-adv-x="1716" d="M156 0v1468h675q197 0 348.5 -55t245.5 -154t141.5 -231.5t47.5 -294.5q0 -158 -56.5 -293.5t-158 -232.5t-248 -152t-320.5 -55h-675zM287 121h536q194 0 343 74t232 212.5t83 321.5q0 287 -168 453t-490 166h-536v-1227z" />
<glyph unicode="E" horiz-adv-x="1429" d="M156 0v1468h1149v-118h-1018v-539h919v-109h-919v-579h1038v-123h-1169z" />
<glyph unicode="F" horiz-adv-x="1374" d="M156 0v1468h1140v-120h-1009v-590h913v-111h-913v-647h-131z" />
<glyph unicode="G" horiz-adv-x="1724" d="M106 729q0 358 212 561t606 203q240 0 394 -59.5t259 -180.5l-84 -100q-92 111 -224 164t-354 53q-325 0 -501 -169t-176 -472q0 -160 52.5 -284.5t147 -202t220 -117t276.5 -39.5q147 0 295 51.5t225 149.5v362h-659v113h790v-520q-48 -76 -131.5 -132.5t-178 -86.5 t-182 -44t-165.5 -14q-139 0 -261 28.5t-225.5 89.5t-178 149.5t-116 215.5t-41.5 281z" />
<glyph unicode="H" horiz-adv-x="1634" d="M156 0v1468h131v-645h1061v645h129v-1468h-129v698h-1061v-698h-131z" />
<glyph unicode="I" horiz-adv-x="458" d="M164 0v1468h131v-1468h-131z" />
<glyph unicode="J" horiz-adv-x="1214" d="M29 182l96 88q58 -95 174.5 -142.5t237.5 -47.5q94 0 165.5 21.5t128 70t86 136t29.5 210.5v950h127v-942q0 -130 -26 -228.5t-70.5 -161t-113 -101.5t-145.5 -54.5t-175 -15.5q-95 0 -185.5 18.5t-183 69.5t-145.5 129z" />
<glyph unicode="K" horiz-adv-x="1611" d="M156 0v1468h129v-761l1083 761h193l-762 -538l782 -930h-170l-709 860l-417 -295v-565h-129z" />
<glyph unicode="L" horiz-adv-x="1339" d="M156 0v1468h131v-1347h997v-121h-1128z" />
<glyph unicode="M" horiz-adv-x="1970" d="M152 0v1468h153l684 -1278l678 1278h150v-1468h-125v1262l-674 -1262h-60l-684 1262v-1262h-122z" />
<glyph unicode="N" horiz-adv-x="1679" d="M156 0v1468h137l1108 -1275v1275h127v-1468h-127l-1118 1264v-1264h-127z" />
<glyph unicode="O" horiz-adv-x="1871" d="M106 715q0 170 59.5 314t166.5 246.5t261 160t337 57.5q240 0 430 -98.5t296.5 -276.5t106.5 -403t-107 -396t-295.5 -262.5t-430.5 -91.5q-173 0 -324 53.5t-261.5 149.5t-174.5 237.5t-64 309.5zM238 715q0 -115 34.5 -215.5t97.5 -176t149 -129.5t190.5 -82t220.5 -28 q203 0 360.5 75.5t247.5 219.5t90 336t-89.5 341.5t-248.5 231.5t-360 82q-202 0 -359.5 -82t-245 -231.5t-87.5 -341.5z" />
<glyph unicode="P" horiz-adv-x="1464" d="M156 0v1468h700q261 0 392.5 -112.5t131.5 -356.5q0 -489 -524 -489h-563v-510h-137zM293 627h553q203 0 307 89t104 279q0 187 -103 270t-308 83h-553v-721z" />
<glyph unicode="Q" horiz-adv-x="1847" d="M106 715q0 170 59.5 314t166.5 246.5t261 160t337 57.5q240 0 430 -98.5t296.5 -276.5t106.5 -403q0 -345 -241 -553l252 -252l-91 -92l-270 268q-201 -121 -483 -121q-173 0 -324 53.5t-261.5 149.5t-174.5 237.5t-64 309.5zM238 715q0 -115 34.5 -215.5t97.5 -176 t149 -129.5t190.5 -82t220.5 -28q203 0 360.5 75.5t247.5 219.5t90 336t-89.5 341.5t-248.5 231.5t-360 82q-202 0 -359.5 -82t-245 -231.5t-87.5 -341.5z" />
<glyph unicode="R" horiz-adv-x="1609" d="M156 0v1468h762q507 0 507 -460q0 -170 -107 -291t-290 -142l551 -575h-160l-516 549h-618v-549h-129zM285 657h626q172 0 279.5 96.5t107.5 252.5q0 165 -96 253.5t-293 88.5h-624v-691z" />
<glyph unicode="S" horiz-adv-x="1396" d="M68 246l94 86q87 -130 232 -190t313 -60q89 0 167.5 15t150 48.5t113.5 97t42 150.5q0 64 -21 112t-52.5 76.5t-82.5 47.5t-97 27.5t-110 13.5q-74 7 -112.5 10.5t-108 12.5t-108 18t-96.5 26t-91 36.5t-72 48.5t-59.5 64t-34.5 81.5t-14 101.5q0 86 33.5 157.5t89.5 120 t131 82.5t155 49t164 15q356 0 561 -168l-71 -108q-180 159 -490 159q-81 0 -155.5 -16t-141 -49.5t-106 -93.5t-39.5 -140q0 -49 14.5 -88.5t38 -66.5t60 -48t74.5 -33.5t87.5 -21.5t92 -14.5t96.5 -10.5q8 -1 12 -1q75 -8 129.5 -15.5t118 -22t108.5 -33t89 -48.5 t71 -67.5t43.5 -90t16.5 -117.5q0 -95 -35 -170.5t-93 -123.5t-137 -80t-162 -45t-174 -13q-126 0 -238 24t-221 89t-175 166z" />
<glyph unicode="T" horiz-adv-x="1406" d="M45 1348v120h1315v-120h-594v-1348h-129v1348h-592z" />
<glyph unicode="U" horiz-adv-x="1656" d="M139 565v903h129v-905q0 -126 43.5 -220t121.5 -149.5t176.5 -82.5t217.5 -27q118 0 216.5 27t176.5 82t122 149.5t44 220.5v905h130v-903q0 -132 -38.5 -236t-103 -171.5t-155 -111.5t-187 -62.5t-205.5 -18.5q-110 0 -206.5 18.5t-186.5 62.5t-154 111.5t-102.5 171.5 t-38.5 236z" />
<glyph unicode="V" horiz-adv-x="1593" d="M29 1468h147l631 -1271l612 1271h144l-719 -1468h-80z" />
<glyph unicode="W" horiz-adv-x="2437" d="M37 1468h153l486 -1263l491 1263h129l478 -1263l477 1263h147l-583 -1468h-95l-491 1288l-504 -1288h-104z" />
<glyph unicode="X" horiz-adv-x="1689" d="M23 0l731 745l-719 723h172l641 -651l639 651h162l-715 -727l731 -741h-162l-659 672l-658 -672h-163z" />
<glyph unicode="Y" horiz-adv-x="1683" d="M23 1468h167l656 -725l653 725h160l-752 -841v-627h-129v629z" />
<glyph unicode="Z" horiz-adv-x="1431" d="M82 100l1061 1246h-1018l6 122h1174l32 -90l-1056 -1255h1038v-123h-1213z" />
<glyph unicode="[" horiz-adv-x="722" d="M258 -430v2130h410l-15 -115h-268v-1902h260l-14 -113h-373z" />
<glyph unicode="\" horiz-adv-x="804" d="M12 1518h117l664 -1569h-117z" />
<glyph unicode="]" horiz-adv-x="747" d="M53 -430l15 113h294v1902h-286l14 115h399v-2130h-436z" />
<glyph unicode="^" horiz-adv-x="1077" d="M45 817l453 651h77l455 -653l-92 -39l-401 594l-400 -594z" />
<glyph unicode="_" horiz-adv-x="1280" d="M-2 -76h1286v-78h-1286v78z" />
<glyph unicode="`" horiz-adv-x="878" d="M147 1503l62 88l518 -387l-35 -51z" />
<glyph unicode="a" horiz-adv-x="1341" d="M29 0l592 1094h94l596 -1094h-131l-172 319h-682l-170 -319h-127zM367 401h600l-301 551z" />
<glyph unicode="b" d="M156 0v1094h534q173 0 265 -75t92 -198q0 -93 -48.5 -160t-148.5 -88q121 -10 191.5 -74t70.5 -186q0 -143 -99 -228t-272 -85h-585zM270 104h453q132 0 203 59.5t71 155.5q0 60 -23 100.5t-67 60t-90 27t-108 7.5h-439v-410zM270 608h418q246 0 246 193q0 86 -63 137 t-187 51h-414v-381z" />
<glyph unicode="c" horiz-adv-x="1302" d="M106 541q0 258 168 414.5t476 156.5q160 0 283.5 -55.5t172.5 -128.5l-76 -82q-55 73 -155.5 116.5t-233.5 43.5q-246 0 -382 -129t-136 -334q0 -213 144 -337t368 -124q254 0 389 172l76 -84q-63 -83 -188.5 -140t-292.5 -57q-130 0 -242 39t-194.5 111t-129.5 179.5 t-47 238.5z" />
<glyph unicode="d" horiz-adv-x="1345" d="M156 0v1094h499q284 0 435 -148.5t151 -400.5q0 -241 -161.5 -393t-422.5 -152h-501zM272 106h377q212 0 343.5 122.5t131.5 316.5q0 199 -121 320.5t-350 121.5h-381v-881z" />
<glyph unicode="e" horiz-adv-x="1130" d="M156 0v1094h858v-105h-744v-381h658v-92h-658v-410h758v-106h-872z" />
<glyph unicode="f" horiz-adv-x="1085" d="M156 0v1094h852v-109h-734v-414h656v-94h-656v-477h-118z" />
<glyph unicode="g" horiz-adv-x="1351" d="M106 543q0 262 158 415.5t449 153.5q349 0 495 -186l-67 -78q-65 83 -164.5 121.5t-257.5 38.5q-240 0 -369 -126t-129 -339q0 -116 39 -206.5t107.5 -147.5t158.5 -86t195 -29q109 0 220.5 38.5t160.5 108.5v264h-492v82h596v-387q-44 -71 -131 -120t-177.5 -69 t-180.5 -20q-132 0 -243 36.5t-193.5 106.5t-128.5 180t-46 249z" />
<glyph unicode="h" horiz-adv-x="1298" d="M156 0v1094h116v-476h754v476h115v-1094h-115v514h-754v-514h-116z" />
<glyph unicode="i" horiz-adv-x="444" d="M164 0v1094h115v-1094h-115z" />
<glyph unicode="j" horiz-adv-x="964" d="M29 150l82 79q47 -74 133 -113.5t174 -39.5q140 0 215.5 71t75.5 244v703h116v-701q0 -121 -29.5 -205.5t-85.5 -130.5t-125 -66t-159 -20q-121 0 -229.5 46.5t-167.5 132.5z" />
<glyph unicode="k" horiz-adv-x="1257" d="M156 0v1094h116v-557l783 557h155l-563 -402l580 -692h-146l-520 629l-289 -205v-424h-116z" />
<glyph unicode="l" horiz-adv-x="1054" d="M156 0v1094h118v-985h725v-109h-843z" />
<glyph unicode="m" horiz-adv-x="1538" d="M152 0v1094h122l496 -930l492 930h124v-1094h-110v889l-471 -889h-70l-473 889v-889h-110z" />
<glyph unicode="n" horiz-adv-x="1329" d="M156 0v1094h114l795 -922v922h113v-1094h-101l-807 911v-911h-114z" />
<glyph unicode="o" horiz-adv-x="1443" d="M106 532q0 255 170.5 417.5t442.5 162.5q177 0 318 -74t220.5 -206.5t79.5 -299.5q0 -252 -173.5 -406.5t-444.5 -154.5q-174 0 -313.5 68.5t-219.5 197t-80 295.5zM223 532q0 -206 138 -329t358 -123q225 0 363.5 122.5t138.5 329.5q0 208 -140 340t-362 132 q-225 0 -360.5 -131.5t-135.5 -340.5z" />
<glyph unicode="p" horiz-adv-x="1165" d="M156 0v1094h526q399 0 399 -355q0 -364 -397 -364h-414v-375h-114zM270 473h392q148 0 227.5 60.5t79.5 201.5q0 134 -72.5 192t-212.5 58h-414v-512z" />
<glyph unicode="q" horiz-adv-x="1419" d="M106 532q0 255 170.5 417.5t442.5 162.5q177 0 318 -74t220.5 -206.5t79.5 -299.5q0 -251 -174 -407l183 -184l-86 -84l-197 198q-152 -84 -344 -84q-174 0 -313.5 68.5t-219.5 197t-80 295.5zM223 532q0 -206 138 -329t358 -123q225 0 363.5 122.5t138.5 329.5 q0 208 -140 340t-362 132q-225 0 -360.5 -131.5t-135.5 -340.5z" />
<glyph unicode="r" horiz-adv-x="1259" d="M156 0v1094h569q196 0 287.5 -92.5t91.5 -251.5q0 -125 -76.5 -213t-206.5 -111l408 -426h-146l-376 403h-437v-403h-114zM270 494h449q125 0 198.5 70t73.5 177q0 114 -65 180t-209 66h-447v-493z" />
<glyph unicode="s" horiz-adv-x="1091" d="M66 184l81 80q53 -97 167 -145.5t239 -48.5q59 0 113 10.5t107 34t84.5 69.5t31.5 109q0 128 -109 166q-74 25 -234 40.5t-237 39.5q-93 29 -145.5 88.5t-52.5 165.5q0 67 26 121.5t68.5 90.5t99 61t115 35.5t119.5 10.5q268 0 430 -131l-64 -92q-71 64 -166 95.5 t-198 31.5q-55 0 -108 -13.5t-100.5 -40t-76.5 -73t-29 -105.5q0 -110 119 -151q60 -20 232.5 -36t248.5 -44q168 -63 168 -250q0 -75 -27 -133t-70 -94t-103 -59.5t-120.5 -32.5t-127.5 -9q-334 0 -481 209z" />
<glyph unicode="t" horiz-adv-x="1069" d="M45 987v107h977v-107h-428v-987h-119v987h-430z" />
<glyph unicode="u" horiz-adv-x="1306" d="M139 418v676h117v-676q0 -88 30.5 -154.5t85.5 -106t125.5 -58.5t155.5 -19q84 0 154 19t125 58.5t86 106t31 154.5v676h116v-676q0 -98 -28 -176t-75.5 -128t-114 -83t-139 -46.5t-155.5 -13.5q-84 0 -157 13.5t-139.5 46.5t-114 83t-75.5 128t-28 176z" />
<glyph unicode="v" horiz-adv-x="1208" d="M29 1094h125l456 -928l447 928h123l-537 -1094h-70z" />
<glyph unicode="w" horiz-adv-x="1814" d="M37 1094h127l348 -916l354 916h101l346 -916l342 916h121l-430 -1094h-76l-355 934l-364 -934h-80z" />
<glyph unicode="x" horiz-adv-x="1312" d="M23 0l561 557l-553 537h157l469 -469l465 469h150l-545 -537l563 -557h-155l-482 485l-481 -485h-149z" />
<glyph unicode="y" horiz-adv-x="1277" d="M23 1094h141l479 -533l477 533h133l-555 -627v-467h-110v467z" />
<glyph unicode="z" horiz-adv-x="1124" d="M82 84l786 911h-755l6 99h882l29 -76l-774 -912h752v-106h-908z" />
<glyph unicode="{" horiz-adv-x="714" d="M45 586v67q68 0 111.5 16t67 52.5t32 84t8.5 122.5v454q0 142 62 223t188 81h125v-93h-125q-70 0 -109.5 -53.5t-39.5 -155.5v-456q0 -135 -36 -210t-139 -97q104 -23 139.5 -101.5t35.5 -238.5v-426q0 -102 39.5 -155.5t109.5 -53.5h125v-90h-125q-126 0 -188 80 t-62 221v424q0 87 -8.5 140.5t-32 92.5t-66.5 55.5t-112 16.5z" />
<glyph unicode="|" horiz-adv-x="548" d="M217 -362v1986h115v-1986h-115z" />
<glyph unicode="}" horiz-adv-x="716" d="M80 -352h125q70 0 109.5 53.5t39.5 155.5v424q0 160 35 238.5t139 101.5q-46 10 -78 31t-50.5 48t-29 70t-13.5 84.5t-3 103.5v426q0 100 -40.5 154.5t-108.5 54.5h-125v93h125q126 0 187 -80.5t61 -223.5v-424q0 -86 7 -137t30 -92.5t66.5 -58.5t115.5 -17v-67 q-131 0 -175 -67t-44 -238v-422q0 -142 -61 -222.5t-187 -80.5h-125v92z" />
<glyph unicode="~" d="M154 625v123q72 126 223 126q57 0 105.5 -15t83.5 -37t70 -43.5t82.5 -36.5t102.5 -15q81 0 136 44t87 106v-123q-72 -127 -223 -127q-70 0 -131 23.5t-99 51t-95 51t-119 23.5q-145 0 -223 -151z" />
<glyph unicode="&#xa1;" horiz-adv-x="487" d="M152 1405q0 80 90 80q92 0 92 -80q0 -76 -92 -76q-90 0 -90 76zM160 100q0 86 0.5 161t2.5 152t3 127.5t4.5 136.5t5.5 127t7 149.5t7 156.5h103q4 -100 14 -310t14.5 -363t4.5 -335q0 -59 -18.5 -87.5t-65.5 -28.5q-49 0 -65.5 28t-16.5 86z" />
<glyph unicode="&#xa2;" horiz-adv-x="1179" d="M96 705q0 134 58 248t175.5 191t276.5 89v235h80v-231q256 -6 410 -154l-58 -86q-60 57 -136 91t-123.5 41.5t-92.5 7.5v-867q86 4 180.5 41.5t169.5 116.5l70 -66q-58 -66 -138.5 -110t-147.5 -60.5t-134 -19.5v-172h-80v172q-225 9 -367.5 155t-142.5 378zM207 702 q0 -189 110.5 -304.5t288.5 -123.5v856q-183 -12 -291 -135t-108 -293z" />
<glyph unicode="&#xa3;" horiz-adv-x="1243" d="M68 0v121h38q87 0 146 70.5t59 211.5v353h-145v104h145v238q0 81 23 150t70.5 125t130 88t192.5 32q105 0 177 -20.5t136 -69.5l-65 -105q-87 78 -244 78q-154 0 -225.5 -71t-71.5 -199v-246h428v-104h-428v-353q0 -220 -121 -282h844v-121h-1089z" />
<glyph unicode="&#xa4;" horiz-adv-x="1054" d="M80 266l201 209v402l-201 208l59 62l201 -213h371l200 213l60 -62l-201 -208v-402l201 -209l-60 -61l-200 215h-371l-201 -215zM360 498h330v356h-330v-356z" />
<glyph unicode="&#xa5;" horiz-adv-x="1482" d="M27 1468h151l570 -737l563 737h143l-520 -667h315v-88h-383l-63 -84v-180h446v-89h-446v-360h-115v360h-444v89h444v186l-61 78h-383v88h313z" />
<glyph unicode="&#xa6;" horiz-adv-x="548" d="M217 -362v819h115v-819h-115zM217 805v819h115v-819h-115z" />
<glyph unicode="&#xa7;" horiz-adv-x="1112" d="M78 119l76 94q60 -83 168.5 -124.5t230.5 -41.5q91 0 163 19.5t120.5 67t48.5 116.5q0 42 -15.5 72.5t-39.5 47.5t-64 27.5t-77.5 14t-92.5 4.5q-63 1 -122.5 9t-125.5 28.5t-114 51.5t-79.5 83t-31.5 119q0 98 68.5 164.5t173.5 93.5q-111 21 -174.5 79.5t-63.5 157.5 q0 91 63 159t160.5 100t212.5 32q117 0 229.5 -31.5t184.5 -93.5l-68 -98q-132 110 -354 110q-127 0 -217 -52t-90 -142q0 -87 77 -131t214 -47q40 -1 59.5 -1.5t64.5 -4t71 -8t67.5 -14.5t66.5 -22.5t55 -33t47 -45.5t28.5 -60t11.5 -76q0 -106 -64 -175.5t-174 -98.5 q112 -17 173 -68t61 -163q0 -98 -58.5 -166t-157.5 -99.5t-231 -31.5q-154 0 -286 42.5t-195 135.5zM238 707q0 -95 89 -142t244 -47q146 0 237 55t91 160q0 40 -12.5 70t-37.5 49.5t-54 32t-71 18.5t-78.5 8t-86.5 2q-133 0 -227 -55t-94 -151z" />
<glyph unicode="&#xa8;" horiz-adv-x="935" d="M141 1368q0 82 82 82q80 0 80 -82t-80 -82q-82 0 -82 82zM631 1368q0 82 82 82q80 0 80 -82t-80 -82q-82 0 -82 82z" />
<glyph unicode="&#xaa;" horiz-adv-x="860" d="M78 614l325 603h52l327 -603h-71l-95 177h-376l-93 -177h-69zM262 836h332l-166 303z" />
<glyph unicode="&#xab;" horiz-adv-x="1110" d="M59 608v90l385 306l50 -82l-344 -269l344 -266l-50 -82zM614 608v90l385 306l50 -82l-344 -269l344 -266l-50 -82z" />
<glyph unicode="&#xac;" horiz-adv-x="1175" d="M154 561v119h866v-512h-119v393h-747z" />
<glyph unicode="&#xad;" horiz-adv-x="798" d="M61 514v94h672v-94h-672z" />
<glyph unicode="&#xaf;" horiz-adv-x="976" d="M156 1300v89h665v-89h-665z" />
<glyph unicode="&#xb0;" horiz-adv-x="946" d="M70 1128q0 162 117 273.5t280 111.5q171 0 288 -110.5t117 -274.5q0 -157 -112.5 -266.5t-292.5 -109.5q-170 0 -283.5 110.5t-113.5 265.5zM180 1128q0 -120 80.5 -198t206.5 -78q131 0 213 77.5t82 198.5q0 123 -82 200t-213 77q-125 0 -206 -77.5t-81 -199.5z" />
<glyph unicode="&#xb1;" d="M154 86v102h893v-102h-893zM154 700v103h395v393h102v-393h396v-103h-396v-397h-102v397h-395z" />
<glyph unicode="&#xb2;" horiz-adv-x="796" d="M74 844q207 103 360 219q69 51 109.5 100.5t40.5 112.5q0 76 -55.5 110.5t-131.5 34.5q-70 0 -133.5 -32.5t-97.5 -92.5l-70 58q39 74 124 114.5t177 40.5q54 0 101.5 -12t89 -37.5t66 -71t24.5 -106.5q0 -45 -16.5 -88t-40 -77.5t-64 -70.5t-74 -60.5t-84.5 -54 t-82 -45.5t-79 -40h481v-82h-608z" />
<glyph unicode="&#xb3;" horiz-adv-x="788" d="M76 1358q54 74 142.5 112.5t189.5 38.5q114 0 193 -54t79 -163q0 -59 -33.5 -101.5t-97.5 -55.5q77 -9 118.5 -52.5t41.5 -119.5q0 -96 -83 -157t-214 -61q-203 0 -324 103l53 80q46 -49 119 -73t148 -24q47 0 88.5 11.5t74.5 44t33 82.5q0 29 -9 51.5t-28.5 36 t-41.5 22.5t-56 13t-62.5 5t-70.5 1h-49v71h47q135 0 193.5 24t58.5 95q0 67 -53.5 99t-129.5 32q-168 0 -256 -121z" />
<glyph unicode="&#xb4;" horiz-adv-x="878" d="M147 1204l521 387l59 -88l-543 -350z" />
<glyph unicode="&#xb5;" horiz-adv-x="1280" d="M139 -135v1229h117v-486q18 -151 118 -242.5t285 -91.5q186 0 288 84t102 260v476h114v-480q0 -119 -38 -207.5t-105.5 -139.5t-150.5 -75t-183 -24q-155 0 -267.5 66t-162.5 153v-522h-117z" />
<glyph unicode="&#xb6;" horiz-adv-x="1144" d="M57 1186q0 138 88.5 210t282.5 72h653l31 -67l-141 -27v-1571h-115v1565h-350v-1565h-111v1108q-165 3 -251.5 75t-86.5 200z" />
<glyph unicode="&#xb7;" horiz-adv-x="395" d="M106 741q0 76 93 76q90 0 90 -76q0 -79 -90 -79q-93 0 -93 79z" />
<glyph unicode="&#xb8;" horiz-adv-x="505" d="M168 -442q82 79 90 235q-74 0 -74 68q0 33 23 51t63 18q48 0 67 -24.5t19 -69.5q0 -92 -41.5 -177t-105.5 -134z" />
<glyph unicode="&#xb9;" horiz-adv-x="407" d="M41 1389l199 108h61v-733h-92v637l-137 -78z" />
<glyph unicode="&#xba;" horiz-adv-x="917" d="M121 907q0 140 93 230t243 90q148 0 244 -90.5t96 -229.5q0 -138 -95.5 -223.5t-244.5 -85.5q-146 0 -241 85.5t-95 223.5zM184 907q0 -114 76.5 -182t196.5 -68q124 0 200 67.5t76 182.5q0 114 -76.5 186t-199.5 72q-124 0 -198.5 -71.5t-74.5 -186.5z" />
<glyph unicode="&#xbb;" horiz-adv-x="1110" d="M59 387l344 266l-344 269l50 82l385 -306v-90l-385 -303zM614 387l344 266l-344 269l50 82l385 -306v-90l-385 -303z" />
<glyph unicode="&#xbc;" horiz-adv-x="1548" d="M109 0l1114 1468h116l-1112 -1468h-118zM172 1389l199 108h61v-733h-92v637l-137 -78zM745 195l504 518h84v-500h111v-80h-111v-153h-92v153h-467zM879 213h362v373z" />
<glyph unicode="&#xbd;" horiz-adv-x="1587" d="M109 0l1114 1468h116l-1112 -1468h-118zM193 1389l198 108h62v-733h-93v637l-137 -78zM838 59q204 101 360 220q69 51 109.5 100.5t40.5 112.5q0 76 -55.5 110.5t-131.5 34.5q-70 0 -133.5 -32.5t-97.5 -92.5l-70 57q39 74 124 115t177 41q54 0 101.5 -12t89 -37.5 t66 -71t24.5 -106.5q0 -45 -16.5 -88t-40.5 -77.5t-64 -70.5t-74 -61t-85 -54.5t-82 -45.5t-79 -40h482v-81h-609z" />
<glyph unicode="&#xbe;" horiz-adv-x="1581" d="M104 1358q54 74 142.5 112.5t189.5 38.5q114 0 193.5 -54t79.5 -163q0 -59 -33.5 -101.5t-97.5 -55.5q159 -19 159 -172q0 -96 -83 -157t-214 -61q-202 0 -323 103l53 80q46 -49 118.5 -73t147.5 -24q47 0 89 11.5t75 44t33 82.5q0 29 -9 51.5t-28.5 36t-41.5 22.5 t-56 13t-62.5 5t-70.5 1h-50v71h47q135 0 193.5 24t58.5 95q0 67 -53 99t-129 32q-168 0 -256 -121zM162 0l1114 1468h117l-1112 -1468h-119zM778 195l504 518h84v-500h111v-80h-111v-153h-92v153h-467zM911 213h363v373z" />
<glyph unicode="&#xbf;" horiz-adv-x="1210" d="M61 422q0 68 18.5 124t48 96t76.5 74t94.5 57t111.5 46q47 17 82.5 35t59.5 34.5t40 39.5t24.5 40t13 46.5t5 48.5t0.5 57h104q0 -70 -10 -120.5t-38 -99t-81 -86t-135 -66.5q-72 -25 -119.5 -49t-92.5 -61.5t-67 -91t-22 -124.5q0 -74 25 -131.5t65.5 -93.5t97 -59.5 t115 -32.5t123.5 -9q323 0 451 232l84 -66q-75 -144 -209 -209t-326 -65q-84 0 -158.5 13t-145.5 44.5t-122 80t-82 124.5t-31 172zM594 1417q0 76 90 76t90 -76q0 -78 -90 -78t-90 78z" />
<glyph unicode="&#xc0;" horiz-adv-x="1773" d="M29 0l790 1468h123l801 -1468h-150l-237 436h-948l-232 -436h-147zM461 541h846l-426 782zM535 1878l61 88l518 -387l-35 -51z" />
<glyph unicode="&#xc1;" horiz-adv-x="1773" d="M29 0l790 1468h123l801 -1468h-150l-237 436h-948l-232 -436h-147zM461 541h846l-426 782zM657 1579l521 387l59 -88l-543 -350z" />
<glyph unicode="&#xc2;" horiz-adv-x="1773" d="M29 0l790 1468h123l801 -1468h-150l-237 436h-948l-232 -436h-147zM461 541h846l-426 782zM532 1569l312 336h82l313 -336l-55 -41l-299 289l-299 -289z" />
<glyph unicode="&#xc3;" horiz-adv-x="1773" d="M29 0l790 1468h123l801 -1468h-150l-237 436h-948l-232 -436h-147zM461 541h846l-426 782zM494 1649q26 70 77.5 107.5t120.5 37.5q46 0 100.5 -19t97 -42.5t96 -42.5t97.5 -19q51 0 82.5 24t48.5 77l66 -37q-25 -65 -75 -105.5t-122 -40.5q-46 0 -101 19t-97.5 42.5 t-95.5 42.5t-97 19q-51 0 -82.5 -24t-50.5 -76z" />
<glyph unicode="&#xc4;" horiz-adv-x="1773" d="M29 0l790 1468h123l801 -1468h-150l-237 436h-948l-232 -436h-147zM461 541h846l-426 782zM561 1743q0 82 82 82q80 0 80 -82t-80 -82q-82 0 -82 82zM1051 1743q0 82 82 82q79 0 79 -82t-79 -82q-82 0 -82 82z" />
<glyph unicode="&#xc5;" horiz-adv-x="1773" d="M29 0l790 1468h123l801 -1468h-150l-237 436h-948l-232 -436h-147zM461 541h846l-426 782zM643 1749q0 106 67.5 161.5t176.5 55.5q106 0 174.5 -55t68.5 -162q0 -98 -68.5 -159.5t-174.5 -61.5q-105 0 -174.5 62t-69.5 159zM713 1749q0 -70 48.5 -112t125.5 -42 t126.5 42t49.5 112q0 74 -49 113t-127 39q-79 0 -126.5 -39t-47.5 -113z" />
<glyph unicode="&#xc6;" horiz-adv-x="2293" d="M29 0l794 1468h1348v-120h-922v-543h826v-100h-826v-584h942v-121h-1073v426h-715l-229 -426h-145zM459 530h659v818h-217z" />
<glyph unicode="&#xc7;" horiz-adv-x="1667" d="M106 733q0 132 35 247.5t106.5 210t174 161.5t243 104t308.5 37q210 0 371.5 -69.5t228.5 -166.5l-82 -100q-68 99 -206 157t-324 58q-172 0 -309 -47.5t-227 -132.5t-137.5 -202t-47.5 -257q0 -149 53 -271t146 -203t220.5 -125t276.5 -44q183 0 324 59.5t221 169.5 l84 -94q-84 -113 -251 -185.5t-378 -72.5q-174 0 -325 51.5t-263.5 147.5t-177 242t-64.5 325zM801 -442q82 79 90 235q-74 0 -74 68q0 33 23 51t63 18q48 0 67 -24.5t19 -69.5q0 -92 -41.5 -177t-105.5 -134z" />
<glyph unicode="&#xc8;" horiz-adv-x="1429" d="M156 0v1468h1149v-118h-1018v-539h919v-109h-919v-579h1038v-123h-1169zM383 1878l61 88l519 -387l-35 -51z" />
<glyph unicode="&#xc9;" horiz-adv-x="1429" d="M156 0v1468h1149v-118h-1018v-539h919v-109h-919v-579h1038v-123h-1169zM485 1579l521 387l59 -88l-543 -350z" />
<glyph unicode="&#xca;" horiz-adv-x="1429" d="M156 0v1468h1149v-118h-1018v-539h919v-109h-919v-579h1038v-123h-1169zM381 1569l311 336h82l313 -336l-55 -41l-299 289l-299 -289z" />
<glyph unicode="&#xcb;" horiz-adv-x="1429" d="M156 0v1468h1149v-118h-1018v-539h919v-109h-919v-579h1038v-123h-1169zM410 1743q0 82 82 82q79 0 79 -82t-79 -82q-82 0 -82 82zM899 1743q0 82 82 82q80 0 80 -82t-80 -82q-82 0 -82 82z" />
<glyph unicode="&#xcc;" horiz-adv-x="458" d="M-121 1878l62 88l518 -387l-35 -51zM164 0v1468h131v-1468h-131z" />
<glyph unicode="&#xcd;" horiz-adv-x="458" d="M2 1579l520 387l60 -88l-543 -350zM164 0v1468h131v-1468h-131z" />
<glyph unicode="&#xce;" horiz-adv-x="458" d="M-123 1569l311 336h82l314 -336l-56 -41l-299 289l-299 -289zM164 0v1468h131v-1468h-131z" />
<glyph unicode="&#xcf;" horiz-adv-x="458" d="M-96 1743q0 82 82 82q80 0 80 -82t-80 -82q-82 0 -82 82zM164 0v1468h131v-1468h-131zM393 1743q0 82 82 82q80 0 80 -82t-80 -82q-82 0 -82 82z" />
<glyph unicode="&#xd0;" horiz-adv-x="1736" d="M88 672v102h90v694h672q159 0 288.5 -36t220.5 -100.5t153 -156.5t91 -202.5t29 -239.5q0 -158 -56 -293.5t-157 -232.5t-248 -152t-321 -55h-672v672h-90zM307 121h535q297 0 478 165t181 443q0 288 -168 453.5t-491 165.5h-535v-574h549v-102h-549v-551z" />
<glyph unicode="&#xd1;" horiz-adv-x="1679" d="M156 0v1468h137l1108 -1275v1275h127v-1468h-127l-1118 1264v-1264h-127zM446 1649q26 70 78 107.5t121 37.5q46 0 100.5 -19t97 -42.5t96 -42.5t97.5 -19q51 0 82.5 24t48.5 77l66 -37q-25 -65 -75 -105.5t-122 -40.5q-46 0 -101 19t-97.5 42.5t-95.5 42.5t-97 19 q-51 0 -82.5 -24t-50.5 -76z" />
<glyph unicode="&#xd2;" horiz-adv-x="1871" d="M106 715q0 170 59.5 314t166.5 246.5t261 160t337 57.5q240 0 430 -98.5t296.5 -276.5t106.5 -403t-107 -396t-295.5 -262.5t-430.5 -91.5q-173 0 -324 53.5t-261.5 149.5t-174.5 237.5t-64 309.5zM238 715q0 -115 34.5 -215.5t97.5 -176t149 -129.5t190.5 -82t220.5 -28 q203 0 360.5 75.5t247.5 219.5t90 336t-89.5 341.5t-248.5 231.5t-360 82q-202 0 -359.5 -82t-245 -231.5t-87.5 -341.5zM584 1878l61 88l518 -387l-35 -51z" />
<glyph unicode="&#xd3;" horiz-adv-x="1871" d="M106 715q0 170 59.5 314t166.5 246.5t261 160t337 57.5q240 0 430 -98.5t296.5 -276.5t106.5 -403t-107 -396t-295.5 -262.5t-430.5 -91.5q-173 0 -324 53.5t-261.5 149.5t-174.5 237.5t-64 309.5zM238 715q0 -115 34.5 -215.5t97.5 -176t149 -129.5t190.5 -82t220.5 -28 q203 0 360.5 75.5t247.5 219.5t90 336t-89.5 341.5t-248.5 231.5t-360 82q-202 0 -359.5 -82t-245 -231.5t-87.5 -341.5zM707 1579l520 387l59 -88l-543 -350z" />
<glyph unicode="&#xd4;" horiz-adv-x="1871" d="M106 715q0 170 59.5 314t166.5 246.5t261 160t337 57.5q240 0 430 -98.5t296.5 -276.5t106.5 -403t-107 -396t-295.5 -262.5t-430.5 -91.5q-173 0 -324 53.5t-261.5 149.5t-174.5 237.5t-64 309.5zM238 715q0 -115 34.5 -215.5t97.5 -176t149 -129.5t190.5 -82t220.5 -28 q203 0 360.5 75.5t247.5 219.5t90 336t-89.5 341.5t-248.5 231.5t-360 82q-202 0 -359.5 -82t-245 -231.5t-87.5 -341.5zM582 1569l311 336h82l313 -336l-55 -41l-299 289l-299 -289z" />
<glyph unicode="&#xd5;" horiz-adv-x="1871" d="M106 715q0 170 59.5 314t166.5 246.5t261 160t337 57.5q240 0 430 -98.5t296.5 -276.5t106.5 -403t-107 -396t-295.5 -262.5t-430.5 -91.5q-173 0 -324 53.5t-261.5 149.5t-174.5 237.5t-64 309.5zM238 715q0 -115 34.5 -215.5t97.5 -176t149 -129.5t190.5 -82t220.5 -28 q203 0 360.5 75.5t247.5 219.5t90 336t-89.5 341.5t-248.5 231.5t-360 82q-202 0 -359.5 -82t-245 -231.5t-87.5 -341.5zM543 1649q26 70 77.5 107.5t120.5 37.5q46 0 100.5 -19t97.5 -42.5t96.5 -42.5t97.5 -19q51 0 82.5 24t48.5 77l65 -37q-25 -65 -74.5 -105.5 t-121.5 -40.5q-46 0 -101 19t-98 42.5t-96 42.5t-97 19q-51 0 -82.5 -24t-50.5 -76z" />
<glyph unicode="&#xd6;" horiz-adv-x="1871" d="M106 715q0 170 59.5 314t166.5 246.5t261 160t337 57.5q240 0 430 -98.5t296.5 -276.5t106.5 -403t-107 -396t-295.5 -262.5t-430.5 -91.5q-173 0 -324 53.5t-261.5 149.5t-174.5 237.5t-64 309.5zM238 715q0 -115 34.5 -215.5t97.5 -176t149 -129.5t190.5 -82t220.5 -28 q203 0 360.5 75.5t247.5 219.5t90 336t-89.5 341.5t-248.5 231.5t-360 82q-202 0 -359.5 -82t-245 -231.5t-87.5 -341.5zM610 1743q0 82 82 82q80 0 80 -82t-80 -82q-82 0 -82 82zM1100 1743q0 82 82 82q80 0 80 -82t-80 -82q-82 0 -82 82z" />
<glyph unicode="&#xd7;" d="M246 471l280 281l-278 276l74 74l276 -279l281 281l71 -74l-278 -278l280 -281l-73 -74l-281 281l-279 -279z" />
<glyph unicode="&#xd8;" horiz-adv-x="1871" d="M106 715q0 170 59.5 314t166.5 246.5t261 160t337 57.5q236 0 424 -98l153 213l82 -49l-153 -211q155 -104 241 -268t86 -365q0 -225 -107 -396t-295.5 -262.5t-430.5 -91.5q-239 0 -426 96l-156 -213l-84 48l156 213q-148 101 -231 256t-83 350zM238 715 q0 -164 67.5 -293.5t188.5 -210.5l784 1081q-159 78 -348 78q-202 0 -359.5 -82t-245 -231.5t-87.5 -341.5zM578 162q162 -78 352 -78q203 0 360.5 75.5t247.5 219.5t90 336q0 169 -70.5 304.5t-197.5 223.5z" />
<glyph unicode="&#xd9;" horiz-adv-x="1656" d="M139 565v903h129v-905q0 -126 43.5 -220t121.5 -149.5t176.5 -82.5t217.5 -27q118 0 216.5 27t176.5 82t122 149.5t44 220.5v905h130v-903q0 -132 -38.5 -236t-103 -171.5t-155 -111.5t-187 -62.5t-205.5 -18.5q-110 0 -206.5 18.5t-186.5 62.5t-154 111.5t-102.5 171.5 t-38.5 236zM477 1878l62 88l518 -387l-35 -51z" />
<glyph unicode="&#xda;" horiz-adv-x="1656" d="M139 565v903h129v-905q0 -126 43.5 -220t121.5 -149.5t176.5 -82.5t217.5 -27q118 0 216.5 27t176.5 82t122 149.5t44 220.5v905h130v-903q0 -132 -38.5 -236t-103 -171.5t-155 -111.5t-187 -62.5t-205.5 -18.5q-110 0 -206.5 18.5t-186.5 62.5t-154 111.5t-102.5 171.5 t-38.5 236zM600 1579l520 387l60 -88l-543 -350z" />
<glyph unicode="&#xdb;" horiz-adv-x="1656" d="M139 565v903h129v-905q0 -126 43.5 -220t121.5 -149.5t176.5 -82.5t217.5 -27q118 0 216.5 27t176.5 82t122 149.5t44 220.5v905h130v-903q0 -132 -38.5 -236t-103 -171.5t-155 -111.5t-187 -62.5t-205.5 -18.5q-110 0 -206.5 18.5t-186.5 62.5t-154 111.5t-102.5 171.5 t-38.5 236zM475 1569l311 336h82l314 -336l-56 -41l-299 289l-299 -289z" />
<glyph unicode="&#xdc;" horiz-adv-x="1656" d="M139 565v903h129v-905q0 -126 43.5 -220t121.5 -149.5t176.5 -82.5t217.5 -27q118 0 216.5 27t176.5 82t122 149.5t44 220.5v905h130v-903q0 -132 -38.5 -236t-103 -171.5t-155 -111.5t-187 -62.5t-205.5 -18.5q-110 0 -206.5 18.5t-186.5 62.5t-154 111.5t-102.5 171.5 t-38.5 236zM502 1743q0 82 82 82q80 0 80 -82t-80 -82q-82 0 -82 82zM991 1743q0 82 82 82q80 0 80 -82t-80 -82q-82 0 -82 82z" />
<glyph unicode="&#xdd;" horiz-adv-x="1683" d="M23 1468h167l656 -725l653 725h160l-752 -841v-627h-129v629zM612 1579l521 387l59 -88l-543 -350z" />
<glyph unicode="&#xde;" horiz-adv-x="1411" d="M156 0v1468h131v-268h489q287 0 419 -105.5t132 -353.5q0 -253 -134 -369t-417 -116h-489v-256h-131zM287 379h489q218 0 322 84t104 278q0 189 -103 265.5t-323 76.5h-489v-704z" />
<glyph unicode="&#xdf;" horiz-adv-x="2183" d="M66 184l81 80q53 -97 167 -145.5t239 -48.5q59 0 113 10.5t107 34t84.5 69.5t31.5 109q0 128 -109 166q-74 25 -234 40.5t-237 39.5q-93 29 -145.5 88.5t-52.5 165.5q0 67 26 121.5t68.5 90.5t99 61t115 35.5t119.5 10.5q268 0 430 -131l-64 -92q-71 64 -166 95.5 t-198 31.5q-55 0 -108 -13.5t-100.5 -40t-76.5 -73t-29 -105.5q0 -110 119 -151q60 -20 232.5 -36t248.5 -44q168 -63 168 -250q0 -75 -27 -133t-70 -94t-103 -59.5t-120.5 -32.5t-127.5 -9q-334 0 -481 209zM1157 184l82 80q53 -97 167 -145.5t239 -48.5q59 0 113 10.5 t106.5 34t84 69.5t31.5 109q0 128 -108 166q-74 25 -234 40.5t-237 39.5q-93 29 -146 88.5t-53 165.5q0 67 26 121.5t68.5 90.5t99 61t115 35.5t119.5 10.5q268 0 430 -131l-63 -92q-71 64 -166.5 95.5t-198.5 31.5q-55 0 -108 -13.5t-100 -40t-76 -73t-29 -105.5 q0 -110 119 -151q60 -20 232.5 -36t248.5 -44q168 -63 168 -250q0 -75 -27 -133t-70.5 -94t-103.5 -59.5t-120.5 -32.5t-127.5 -9q-334 0 -481 209z" />
<glyph unicode="&#xe0;" horiz-adv-x="1341" d="M29 0l592 1094h94l596 -1094h-131l-172 319h-682l-170 -319h-127zM319 1503l62 88l518 -387l-35 -51zM367 401h600l-301 551z" />
<glyph unicode="&#xe1;" horiz-adv-x="1341" d="M29 0l592 1094h94l596 -1094h-131l-172 319h-682l-170 -319h-127zM367 401h600l-301 551zM442 1204l521 387l59 -88l-543 -350z" />
<glyph unicode="&#xe2;" horiz-adv-x="1341" d="M29 0l592 1094h94l596 -1094h-131l-172 319h-682l-170 -319h-127zM317 1194l312 336h82l313 -336l-55 -41l-299 289l-299 -289zM367 401h600l-301 551z" />
<glyph unicode="&#xe3;" horiz-adv-x="1341" d="M29 0l592 1094h94l596 -1094h-131l-172 319h-682l-170 -319h-127zM276 1274q26 70 78 107.5t121 37.5q46 0 100.5 -19t97 -42.5t96 -42.5t97.5 -19q51 0 82.5 24t48.5 77l66 -37q-25 -65 -75 -105.5t-122 -40.5q-46 0 -101 19t-97.5 42.5t-95.5 42.5t-97 19 q-51 0 -82.5 -24t-50.5 -76zM367 401h600l-301 551z" />
<glyph unicode="&#xe4;" horiz-adv-x="1341" d="M29 0l592 1094h94l596 -1094h-131l-172 319h-682l-170 -319h-127zM344 1368q0 82 82 82q80 0 80 -82t-80 -82q-82 0 -82 82zM367 401h600l-301 551zM834 1368q0 82 81 82q80 0 80 -82t-80 -82q-81 0 -81 82z" />
<glyph unicode="&#xe5;" horiz-adv-x="1341" d="M29 0l592 1094h94l596 -1094h-131l-172 319h-682l-170 -319h-127zM367 401h600l-301 551zM426 1374q0 106 67.5 161.5t176.5 55.5q106 0 174.5 -55t68.5 -162q0 -98 -68.5 -159.5t-174.5 -61.5q-105 0 -174.5 62t-69.5 159zM496 1374q0 -70 48.5 -111.5t125.5 -41.5 q78 0 127 41.5t49 111.5q0 74 -49 113t-127 39q-79 0 -126.5 -39t-47.5 -113z" />
<glyph unicode="&#xe6;" horiz-adv-x="1759" d="M29 0l606 1094h1007v-105h-655v-381h551v-80h-551v-424h668v-104h-789v322h-532l-178 -322h-127zM377 410h489v585h-161z" />
<glyph unicode="&#xe7;" horiz-adv-x="1302" d="M106 541q0 258 168 414.5t476 156.5q160 0 283.5 -55.5t172.5 -128.5l-76 -82q-55 73 -155.5 116.5t-233.5 43.5q-246 0 -382 -129t-136 -334q0 -213 144 -337t368 -124q254 0 389 172l76 -84q-63 -83 -188.5 -140t-292.5 -57q-130 0 -242 39t-194.5 111t-129.5 179.5 t-47 238.5zM598 -442q82 79 90 235q-74 0 -74 68q0 33 23 51t63 18q48 0 67 -24.5t19 -69.5q0 -92 -41.5 -177t-105.5 -134z" />
<glyph unicode="&#xe8;" horiz-adv-x="1130" d="M156 0v1094h858v-105h-744v-381h658v-92h-658v-410h758v-106h-872zM233 1503l62 88l518 -387l-35 -51z" />
<glyph unicode="&#xe9;" horiz-adv-x="1130" d="M156 0v1094h858v-105h-744v-381h658v-92h-658v-410h758v-106h-872zM356 1204l521 387l59 -88l-543 -350z" />
<glyph unicode="&#xea;" horiz-adv-x="1130" d="M156 0v1094h858v-105h-744v-381h658v-92h-658v-410h758v-106h-872zM231 1194l312 336h82l313 -336l-55 -41l-299 289l-299 -289z" />
<glyph unicode="&#xeb;" horiz-adv-x="1130" d="M156 0v1094h858v-105h-744v-381h658v-92h-658v-410h758v-106h-872zM260 1368q0 82 82 82q80 0 80 -82t-80 -82q-82 0 -82 82zM750 1368q0 82 81 82q80 0 80 -82t-80 -82q-81 0 -81 82z" />
<glyph unicode="&#xec;" horiz-adv-x="557" d="M-16 1503l61 88l518 -387l-35 -51zM276 0v1094h115v-1094h-115z" />
<glyph unicode="&#xed;" horiz-adv-x="552" d="M-6 1204l520 387l59 -88l-542 -350zM164 0v1094h115v-1094h-115z" />
<glyph unicode="&#xee;" horiz-adv-x="706" d="M0 1194l311 336h82l314 -336l-56 -41l-299 289l-299 -289zM295 0v1094h115v-1094h-115z" />
<glyph unicode="&#xef;" horiz-adv-x="651" d="M0 1368q0 82 82 82q80 0 80 -82t-80 -82q-82 0 -82 82zM266 0v1094h115v-1094h-115zM489 1368q0 82 82 82q80 0 80 -82t-80 -82q-82 0 -82 82z" />
<glyph unicode="&#xf0;" horiz-adv-x="1349" d="M88 500v86h72v508h491q277 0 435.5 -144t158.5 -405q0 -243 -164.5 -393t-425.5 -152q-82 0 -247 -1t-248 -1v502h-72zM274 106h375q211 0 345 121t134 318q0 209 -127.5 325.5t-351.5 116.5h-375v-401h441v-86h-441v-394z" />
<glyph unicode="&#xf1;" horiz-adv-x="1329" d="M156 0v1094h114l795 -922v922h113v-1094h-101l-807 911v-911h-114zM270 1274q26 70 78 107.5t121 37.5q46 0 100.5 -19t97 -42.5t96 -42.5t97.5 -19q51 0 82.5 24t48.5 77l66 -37q-25 -65 -75 -105.5t-122 -40.5q-46 0 -101 19t-97.5 42.5t-95.5 42.5t-97 19 q-51 0 -82.5 -24t-50.5 -76z" />
<glyph unicode="&#xf2;" horiz-adv-x="1443" d="M106 532q0 255 170.5 417.5t442.5 162.5q177 0 318 -74t220.5 -206.5t79.5 -299.5q0 -252 -173.5 -406.5t-444.5 -154.5q-174 0 -313.5 68.5t-219.5 197t-80 295.5zM223 532q0 -206 138 -329t358 -123q225 0 363.5 122.5t138.5 329.5q0 208 -140 340t-362 132 q-225 0 -360.5 -131.5t-135.5 -340.5zM371 1503l61 88l518 -387l-35 -51z" />
<glyph unicode="&#xf3;" horiz-adv-x="1443" d="M106 532q0 255 170.5 417.5t442.5 162.5q177 0 318 -74t220.5 -206.5t79.5 -299.5q0 -252 -173.5 -406.5t-444.5 -154.5q-174 0 -313.5 68.5t-219.5 197t-80 295.5zM223 532q0 -206 138 -329t358 -123q225 0 363.5 122.5t138.5 329.5q0 208 -140 340t-362 132 q-225 0 -360.5 -131.5t-135.5 -340.5zM494 1204l520 387l59 -88l-543 -350z" />
<glyph unicode="&#xf4;" horiz-adv-x="1443" d="M106 532q0 255 170.5 417.5t442.5 162.5q177 0 318 -74t220.5 -206.5t79.5 -299.5q0 -252 -173.5 -406.5t-444.5 -154.5q-174 0 -313.5 68.5t-219.5 197t-80 295.5zM223 532q0 -206 138 -329t358 -123q225 0 363.5 122.5t138.5 329.5q0 208 -140 340t-362 132 q-225 0 -360.5 -131.5t-135.5 -340.5zM369 1194l311 336h82l313 -336l-55 -41l-299 289l-299 -289z" />
<glyph unicode="&#xf5;" horiz-adv-x="1443" d="M106 532q0 255 170.5 417.5t442.5 162.5q177 0 318 -74t220.5 -206.5t79.5 -299.5q0 -252 -173.5 -406.5t-444.5 -154.5q-174 0 -313.5 68.5t-219.5 197t-80 295.5zM223 532q0 -206 138 -329t358 -123q225 0 363.5 122.5t138.5 329.5q0 208 -140 340t-362 132 q-225 0 -360.5 -131.5t-135.5 -340.5zM328 1274q26 70 77.5 107.5t120.5 37.5q46 0 100.5 -19t97.5 -42.5t96.5 -42.5t97.5 -19q51 0 82.5 24t48.5 77l65 -37q-25 -65 -74.5 -105.5t-121.5 -40.5q-46 0 -101 19t-98 42.5t-96 42.5t-97 19q-51 0 -82.5 -24t-50.5 -76z" />
<glyph unicode="&#xf6;" horiz-adv-x="1443" d="M106 532q0 255 170.5 417.5t442.5 162.5q177 0 318 -74t220.5 -206.5t79.5 -299.5q0 -252 -173.5 -406.5t-444.5 -154.5q-174 0 -313.5 68.5t-219.5 197t-80 295.5zM223 532q0 -206 138 -329t358 -123q225 0 363.5 122.5t138.5 329.5q0 208 -140 340t-362 132 q-225 0 -360.5 -131.5t-135.5 -340.5zM395 1368q0 82 82 82q80 0 80 -82t-80 -82q-82 0 -82 82zM885 1368q0 82 82 82q80 0 80 -82t-80 -82q-82 0 -82 82z" />
<glyph unicode="&#xf7;" d="M154 700v103h893v-103h-893zM508 420q0 76 92 76q90 0 90 -76q0 -80 -90 -80q-92 0 -92 80zM508 1087q0 76 92 76q90 0 90 -76q0 -79 -90 -79q-92 0 -92 79z" />
<glyph unicode="&#xf8;" horiz-adv-x="1443" d="M106 532q0 255 170.5 417.5t442.5 162.5q173 0 311 -72l123 168l66 -41l-121 -166q112 -78 175.5 -200t63.5 -269q0 -252 -173.5 -406.5t-444.5 -154.5q-176 0 -316 70l-127 -174l-67 37l129 178q-110 74 -171 189t-61 261zM223 532q0 -118 46.5 -210t131.5 -152l564 780 q-108 54 -246 54q-225 0 -360.5 -131.5t-135.5 -340.5zM469 131q111 -51 250 -51q225 0 363.5 122.5t138.5 329.5q0 120 -49.5 217.5t-139.5 161.5z" />
<glyph unicode="&#xf9;" horiz-adv-x="1306" d="M139 418v676h117v-676q0 -88 30.5 -154.5t85.5 -106t125.5 -58.5t155.5 -19q84 0 154 19t125 58.5t86 106t31 154.5v676h116v-676q0 -98 -28 -176t-75.5 -128t-114 -83t-139 -46.5t-155.5 -13.5q-84 0 -157 13.5t-139.5 46.5t-114 83t-75.5 128t-28 176zM301 1503l61 88 l519 -387l-35 -51z" />
<glyph unicode="&#xfa;" horiz-adv-x="1306" d="M139 418v676h117v-676q0 -88 30.5 -154.5t85.5 -106t125.5 -58.5t155.5 -19q84 0 154 19t125 58.5t86 106t31 154.5v676h116v-676q0 -98 -28 -176t-75.5 -128t-114 -83t-139 -46.5t-155.5 -13.5q-84 0 -157 13.5t-139.5 46.5t-114 83t-75.5 128t-28 176zM424 1204 l520 387l60 -88l-543 -350z" />
<glyph unicode="&#xfb;" horiz-adv-x="1306" d="M139 418v676h117v-676q0 -88 30.5 -154.5t85.5 -106t125.5 -58.5t155.5 -19q84 0 154 19t125 58.5t86 106t31 154.5v676h116v-676q0 -98 -28 -176t-75.5 -128t-114 -83t-139 -46.5t-155.5 -13.5q-84 0 -157 13.5t-139.5 46.5t-114 83t-75.5 128t-28 176zM299 1194 l311 336h82l314 -336l-56 -41l-299 289l-299 -289z" />
<glyph unicode="&#xfc;" horiz-adv-x="1306" d="M139 418v676h117v-676q0 -88 30.5 -154.5t85.5 -106t125.5 -58.5t155.5 -19q84 0 154 19t125 58.5t86 106t31 154.5v676h116v-676q0 -98 -28 -176t-75.5 -128t-114 -83t-139 -46.5t-155.5 -13.5q-84 0 -157 13.5t-139.5 46.5t-114 83t-75.5 128t-28 176zM328 1368 q0 82 82 82q79 0 79 -82t-79 -82q-82 0 -82 82zM817 1368q0 82 82 82q80 0 80 -82t-80 -82q-82 0 -82 82z" />
<glyph unicode="&#xfd;" horiz-adv-x="1277" d="M23 1094h141l479 -533l477 533h133l-555 -627v-467h-110v467zM410 1204l520 387l59 -88l-543 -350z" />
<glyph unicode="&#xfe;" horiz-adv-x="1163" d="M156 0v1094h116v-172h418q183 0 286 -97.5t103 -265.5q0 -171 -106.5 -272t-302.5 -101h-398v-186h-116zM272 295h383q145 0 228.5 67.5t83.5 196.5q0 122 -73.5 188t-203.5 66h-418v-518z" />
<glyph unicode="&#xff;" horiz-adv-x="1277" d="M23 1094h141l479 -533l477 533h133l-555 -627v-467h-110v467zM313 1368q0 82 82 82q80 0 80 -82t-80 -82q-82 0 -82 82zM803 1368q0 82 82 82q80 0 80 -82t-80 -82q-82 0 -82 82z" />
<glyph unicode="&#x152;" horiz-adv-x="2797" d="M106 715q0 170 57.5 314t162 246.5t257 160t335.5 57.5q250 0 427 -117t246 -317v409h1082v-120h-953v-541h854v-102h-854v-584h973v-121h-1102v373q-63 -181 -244.5 -294.5t-428.5 -113.5q-173 0 -322 53.5t-257.5 149.5t-170.5 237.5t-62 309.5zM240 715 q0 -144 51.5 -263t142 -198.5t215 -123.5t269.5 -44q304 0 485.5 169t181.5 460q0 292 -182 472.5t-485 180.5q-306 0 -492 -180.5t-186 -472.5z" />
<glyph unicode="&#x153;" horiz-adv-x="2115" d="M106 532q0 125 40 231t113.5 183.5t185 121.5t247.5 44q170 0 299.5 -85t175.5 -236v303h830v-105h-713v-385h629v-82h-629v-416h727v-106h-844v279q-32 -130 -171.5 -219t-303.5 -89q-261 0 -423.5 154t-162.5 407zM225 532q0 -202 129 -326t338 -124q213 0 338 122.5 t125 327.5q-3 210 -128 339.5t-335 129.5q-217 0 -342 -131t-125 -338z" />
<glyph unicode="&#x178;" horiz-adv-x="1683" d="M23 1468h167l656 -725l653 725h160l-752 -841v-627h-129v629zM516 1743q0 82 82 82q80 0 80 -82t-80 -82q-82 0 -82 82zM1006 1743q0 82 81 82q80 0 80 -82t-80 -82q-81 0 -81 82z" />
<glyph unicode="&#x2c6;" horiz-adv-x="1019" d="M156 1194l311 336h82l313 -336l-55 -41l-299 289l-299 -289z" />
<glyph unicode="&#x2dc;" horiz-adv-x="1099" d="M156 1274q26 70 77.5 107.5t120.5 37.5q46 0 100.5 -19t97 -42.5t96 -42.5t97.5 -19q99 0 132 101l65 -37q-25 -65 -75 -105.5t-122 -40.5q-46 0 -101 19t-97.5 42.5t-95.5 42.5t-97 19q-51 0 -82.5 -24t-50.5 -76z" />
<glyph unicode="&#x2000;" horiz-adv-x="983" />
<glyph unicode="&#x2001;" horiz-adv-x="1966" />
<glyph unicode="&#x2002;" horiz-adv-x="983" />
<glyph unicode="&#x2003;" horiz-adv-x="1966" />
<glyph unicode="&#x2004;" horiz-adv-x="655" />
<glyph unicode="&#x2005;" horiz-adv-x="491" />
<glyph unicode="&#x2006;" horiz-adv-x="327" />
<glyph unicode="&#x2007;" horiz-adv-x="327" />
<glyph unicode="&#x2008;" horiz-adv-x="245" />
<glyph unicode="&#x2009;" horiz-adv-x="393" />
<glyph unicode="&#x200a;" horiz-adv-x="109" />
<glyph unicode="&#x2010;" horiz-adv-x="798" d="M61 514v94h672v-94h-672z" />
<glyph unicode="&#x2011;" horiz-adv-x="798" d="M61 514v94h672v-94h-672z" />
<glyph unicode="&#x2012;" horiz-adv-x="798" d="M61 514v94h672v-94h-672z" />
<glyph unicode="&#x2013;" horiz-adv-x="1282" d="M61 514v94h1156v-94h-1156z" />
<glyph unicode="&#x2014;" horiz-adv-x="2115" d="M61 514v94h1989v-94h-1989z" />
<glyph unicode="&#x2018;" horiz-adv-x="450" d="M115 1188q0 97 43.5 196t109.5 150l49 -37q-37 -34 -65 -105.5t-31 -154.5q72 0 72 -78q0 -36 -24 -56t-66 -20q-49 0 -68.5 26t-19.5 79z" />
<glyph unicode="&#x2019;" horiz-adv-x="448" d="M127 1067q38 36 65.5 107t30.5 153q-71 0 -71 78q0 35 23.5 55.5t66.5 20.5q50 0 70 -27t20 -80q0 -94 -45 -194.5t-109 -149.5z" />
<glyph unicode="&#x201a;" horiz-adv-x="448" d="M127 -174q38 36 65.5 106.5t30.5 151.5q-71 0 -71 80q0 74 90 74q50 0 70 -27t20 -78q0 -94 -45 -194.5t-109 -147.5z" />
<glyph unicode="&#x201c;" horiz-adv-x="901" d="M115 1188q0 97 43.5 196t109.5 150l49 -37q-37 -34 -65 -105.5t-31 -154.5q72 0 72 -78q0 -36 -24 -56t-66 -20q-49 0 -68.5 26t-19.5 79zM565 1188q0 97 44 196t110 150l49 -37q-37 -34 -65 -105.5t-31 -154.5q71 0 71 -78q0 -36 -24 -56t-66 -20q-49 0 -68.5 26 t-19.5 79z" />
<glyph unicode="&#x201d;" horiz-adv-x="897" d="M127 1067q38 36 65.5 107t30.5 153q-71 0 -71 78q0 35 23.5 55.5t66.5 20.5q50 0 70 -27t20 -80q0 -94 -45 -194.5t-109 -149.5zM575 1067q38 36 66 107t31 153q-72 0 -72 78q0 35 23.5 55.5t66.5 20.5q50 0 70 -27t20 -80q0 -94 -44.5 -194.5t-108.5 -149.5z" />
<glyph unicode="&#x201e;" horiz-adv-x="897" d="M127 -174q38 36 65.5 106.5t30.5 151.5q-71 0 -71 80q0 74 90 74q50 0 70 -27t20 -78q0 -94 -45 -194.5t-109 -147.5zM575 -174q38 36 66 106.5t31 151.5q-72 0 -72 80q0 74 90 74q50 0 70 -27t20 -78q0 -94 -44.5 -194.5t-108.5 -147.5z" />
<glyph unicode="&#x2022;" horiz-adv-x="792" d="M113 754q0 112 80.5 185t197.5 73q118 0 201.5 -73t83.5 -185t-84 -187t-201 -75t-197.5 74.5t-80.5 187.5z" />
<glyph unicode="&#x2026;" horiz-adv-x="1976" d="M106 66q0 75 93 75q90 0 90 -75q0 -80 -90 -80q-93 0 -93 80zM897 66q0 75 92 75q90 0 90 -75q0 -80 -90 -80q-92 0 -92 80zM1688 66q0 75 92 75q90 0 90 -75q0 -80 -90 -80q-92 0 -92 80z" />
<glyph unicode="&#x202f;" horiz-adv-x="393" />
<glyph unicode="&#x2039;" horiz-adv-x="555" d="M59 608v90l385 306l50 -82l-344 -269l344 -266l-50 -82z" />
<glyph unicode="&#x203a;" horiz-adv-x="555" d="M59 387l344 266l-344 269l50 82l385 -306v-90l-385 -303z" />
<glyph unicode="&#x205f;" horiz-adv-x="491" />
<glyph unicode="&#x20ac;" horiz-adv-x="1595" d="M29 463l26 96h154q-10 56 -10 143q0 72 4 107h-137l26 96h123q23 131 79 235t151 185t242.5 124.5t338.5 43.5q177 0 296 -31.5t212 -101.5l-68 -107q-79 62 -181 89.5t-259 27.5q-286 0 -454 -124.5t-218 -340.5h910l-60 -96h-864q-6 -49 -6 -98q0 -77 16 -152h705 l-56 -96h-620q47 -122 143.5 -207t223.5 -125.5t280 -40.5q255 0 442 105l72 -107q-99 -54 -233.5 -86.5t-280.5 -32.5q-191 0 -349.5 52.5t-277 165.5t-168.5 276h-202z" />
<glyph unicode="&#x2122;" horiz-adv-x="1759" d="M70 1368v100h581v-100h-237v-713h-101v713h-243zM780 655v813h115l328 -534l323 534h99v-813h-101v643l-321 -540l-340 542v-645h-103z" />
<glyph unicode="&#x25fc;" horiz-adv-x="1095" d="M0 0v1096h1096v-1096h-1096z" />
</font>
</defs>
</svg>
